<?xml version="1.0" standalone="no"?>
<!DOCTYPE svg PUBLIC "-//W3C//DTD SVG 1.1//EN" "http://www.w3.org/Graphics/SVG/1.1/DTD/svg11.dtd" >
<svg xmlns="http://www.w3.org/2000/svg" xmlns:xlink="http://www.w3.org/1999/xlink" version="1.1">
<metadata>
Created by FontForge 20201107 at Fri Oct  4 19:08:40 2019
 By 
Copyright (C)2019 Alexander Cherepanov
</metadata>
<defs>
<font id="TransgenderGrotesk-Regular" horiz-adv-x="787" >
  <font-face 
    font-family="Transgender Grotesk"
    font-weight="400"
    font-stretch="normal"
    units-per-em="1000"
    panose-1="0 0 5 0 0 0 0 0 0 0"
    ascent="750"
    descent="-250"
    x-height="520"
    cap-height="720"
    bbox="-244 -255 1869 1144"
    underline-thickness="50"
    underline-position="-100"
    unicode-range="U+0020-FEFF"
  />
<missing-glyph horiz-adv-x="500" 
d="M93 750h317v-1000h-317v1000zM233 650v-37h-66v-33h166v33h-66v37h66v33h-165v-33h65zM333 450v34h-66v70h-100v-104h166zM200 520h33v-36h-33v36zM233 390v-37h-66v-33h100v70h66v33h-166v-33h66zM167 297v-34h166v100h-33v-66h-133zM267 185v23h33v-47h-100v80h-33
v-113h166v113h-100v-56h34zM333 -45v113h-166v-113h166zM200 35h100v-47h-100v47zM237 -101l-70 -47v-33h166v33h-102l70 47h32v33h-166v-33h70z" />
    <glyph glyph-name="fi" unicode="fi" horiz-adv-x="634" 
d="M186.5 647q41.5 48 100.5 68t123 20q93 0 144 -26v-80q-23 15 -60 22t-79 7q-83 0 -131 -32t-52 -106h322v-520h-92v445h-230v-445h-92v445h-130v75h131q4 79 45.5 127z" />
    <glyph glyph-name="fl" unicode="fl" horiz-adv-x="632" 
d="M212.5 672.5q72.5 47.5 179.5 47.5h160v-720h-90v643h-71q-68 0 -112 -28.5t-47 -94.5h150v-75h-150v-445h-92v445h-130v75h130v1q0 104 72.5 151.5z" />
    <glyph glyph-name=".notdef" horiz-adv-x="500" 
d="M93 750h317v-1000h-317v1000zM233 650v-37h-66v-33h166v33h-66v37h66v33h-165v-33h65zM333 450v34h-66v70h-100v-104h166zM200 520h33v-36h-33v36zM233 390v-37h-66v-33h100v70h66v33h-166v-33h66zM167 297v-34h166v100h-33v-66h-133zM267 185v23h33v-47h-100v80h-33
v-113h166v113h-100v-56h34zM333 -45v113h-166v-113h166zM200 35h100v-47h-100v47zM237 -101l-70 -47v-33h166v33h-102l70 47h32v33h-166v-33h70z" />
    <glyph glyph-name=".null" horiz-adv-x="0" 
 />
    <glyph glyph-name="nonmarkingreturn" horiz-adv-x="333" 
 />
    <glyph glyph-name="space" unicode=" " horiz-adv-x="300" 
 />
    <glyph glyph-name="exclam" unicode="!" horiz-adv-x="242" 
d="M76 720h90v-520h-90v520zM70.5 85q-20.5 -17 -20.5 -42t20.5 -41.5t50.5 -16.5t50.5 16.5t20.5 41.5t-20.5 42t-50.5 17t-50.5 -17z" />
    <glyph glyph-name="quotedbl" unicode="&#x22;" horiz-adv-x="418" 
d="M135 720h102l-156 -220h-76zM286 720h102l-156 -220h-76z" />
    <glyph glyph-name="numbersign" unicode="#" horiz-adv-x="939" 
d="M285 450h-119v70h153l99 200h90l-99 -200h275l99 200h90l-99 -200h115v-70h-149l-80 -160h113v-70h-147l-109 -220h-90l109 220h-275l-109 -220h-90l109 220h-121v70h155zM375 450l-80 -160h275l79 160h-274z" />
    <glyph glyph-name="dollar" unicode="$" horiz-adv-x="927" 
d="M72 438.5q32 -33.5 113.5 -57.5t246.5 -50v-264q-111 2 -220.5 28t-167.5 67v-94q53 -34 165.5 -57.5t222.5 -25.5v-99h77v100q174 9 276 62t102 149q0 59 -35 95.5t-114.5 61.5t-228.5 50v249q101 -4 193 -26.5t149 -57.5v95q-61 30 -150.5 48.5t-191.5 21.5v81h-77v-81
q-121 -4 -209.5 -30.5t-135.5 -71t-47 -103.5q0 -57 32 -90.5zM213 615q82 33 219 38v-237q-122 20 -183.5 34t-89.5 32t-28 47q0 53 82 86zM682.5 284q60.5 -16 86.5 -36.5t26 -50.5q0 -60 -81.5 -91.5t-204.5 -37.5v251q113 -19 173.5 -35z" />
    <glyph glyph-name="percent" unicode="%" horiz-adv-x="764" 
d="M43 660q23 34 64.5 54.5t94.5 20.5t94.5 -20.5t64.5 -54.5t23 -75t-23 -75t-64.5 -54.5t-94.5 -20.5t-94.5 20.5t-64.5 54.5t-23 75t23 75zM109 0l450 720h96l-450 -720h-96zM128 529q27 -22 74 -22t74 22t27 56t-27 56t-74 22t-74 -22t-27 -56t27 -56zM403 210
q23 34 64.5 54.5t94.5 20.5t94.5 -20.5t64.5 -54.5t23 -75t-23 -75t-64.5 -54.5t-94.5 -20.5t-94.5 20.5t-64.5 54.5t-23 75t23 75zM488 79q27 -22 74 -22t74 22t27 56t-27 56t-74 22t-74 -22t-27 -56t27 -56z" />
    <glyph glyph-name="ampersand" unicode="&#x26;" horiz-adv-x="859" 
d="M236 423q-34 31 -57.5 70t-23.5 78q0 48 29.5 85t87.5 58t139 21q72 0 126 -20t83 -56.5t29 -82.5q0 -123 -262 -184l228 -202q36 35 75 78l71 77h98l-84 -91q-78 -84 -106 -111l161 -143h-115l-103 91q-67 -58 -132.5 -82t-159.5 -24q-87 0 -152.5 28t-101.5 80t-36 122
q0 146 206 208zM323 448q112 27 176.5 55t64.5 73q0 41 -44 65t-111 24q-83 0 -126 -26t-43 -68q0 -50 83 -123zM175.5 97q60.5 -40 148.5 -40q68 0 123.5 20.5t109.5 62.5l-260 230q-89 -16 -135.5 -57t-46.5 -98q0 -78 60.5 -118z" />
    <glyph glyph-name="quotesingle" unicode="'" horiz-adv-x="275" 
d="M135 720h110l-156 -220h-84z" />
    <glyph glyph-name="parenleft" unicode="(" horiz-adv-x="370" 
d="M92.5 523q52.5 118 160.5 212h97q-210 -178 -210 -460q0 -132 49.5 -245t160.5 -215h-102q-108 102 -158 216t-50 244t52.5 248z" />
    <glyph glyph-name="parenright" unicode=")" horiz-adv-x="370" 
d="M180.5 30q49.5 113 49.5 245q0 282 -210 460h97q108 -94 160.5 -212t52.5 -248t-50 -244t-158 -216h-102q111 102 160.5 215z" />
    <glyph glyph-name="asterisk" unicode="*" horiz-adv-x="467" 
d="M202 587v148h63v-149l10 -8l143 46l19 -60l-141 -46l-4 -13l87 -121l-51 -36l-87 120h-15l-87 -120l-51 36l87 121l-4 13l-141 46l19 60l142 -45z" />
    <glyph glyph-name="plus" unicode="+" horiz-adv-x="636" 
d="M60 326v74h216v220h83v-220h217v-74h-217v-220h-83v220h-216z" />
    <glyph glyph-name="comma" unicode="," horiz-adv-x="275" 
d="M135 100h110l-156 -220h-84z" />
    <glyph glyph-name="hyphen" unicode="-" horiz-adv-x="450" 
d="M410 238h-370v74h370v-74z" />
    <glyph glyph-name="period" unicode="." horiz-adv-x="242" 
d="M70.5 85q-20.5 -17 -20.5 -42t20.5 -41.5t50.5 -16.5t50.5 16.5t20.5 41.5t-20.5 42t-50.5 17t-50.5 -17z" />
    <glyph glyph-name="slash" unicode="/" horiz-adv-x="535" 
d="M0 -160l450 1030h85l-450 -1030h-85z" />
    <glyph glyph-name="zero" unicode="0" horiz-adv-x="1096" 
d="M289.5 685.5q-113.5 -49.5 -176.5 -135t-63 -190.5q0 -109 63 -194t176 -133t259 -48t259 48t176 133t63 194q0 105 -63 190.5t-176.5 135t-258.5 49.5t-258.5 -49.5zM757 613.5q92 -39.5 143 -106.5t51 -147q0 -79 -51 -146.5t-143 -107t-209 -39.5t-209 39.5t-143 107
t-51 146.5q0 80 51 147t143 106.5t209 39.5t209 -39.5z" />
    <glyph glyph-name="one" unicode="1" horiz-adv-x="604" 
d="M190 510q60 33 89 88.5t29 121.5h186v-720h-95v628h-21q-28 -104 -115 -164.5t-223 -60.5v74q90 0 150 33z" />
    <glyph glyph-name="two" unicode="2" horiz-adv-x="797" 
d="M402 232.5q132 38.5 193.5 100t61.5 132.5q0 89 -75.5 137t-200.5 48q-84 0 -164.5 -24t-144.5 -74v100q131 83 318 83q106 0 188 -32.5t128 -91.5t46 -136q0 -100 -69.5 -175.5t-201.5 -120t-316 -53.5v-45h582v-81h-677v194q200 0 332 38.5z" />
    <glyph glyph-name="three" unicode="3" horiz-adv-x="803" 
d="M176.5 91q95.5 -23 186.5 -23q96 0 165 22.5t104.5 63.5t35.5 94q0 78 -82 120t-208 42q-45 0 -88 -8.5t-75 -20.5v70l402 165v26h-566v78h660v-136l-209 -86v-19q112 -18 186.5 -75.5t74.5 -152.5q0 -80 -46 -140t-137 -93t-222 -33q-97 0 -182.5 18t-140.5 48v98
q46 -35 141.5 -58z" />
    <glyph glyph-name="four" unicode="4" horiz-adv-x="837" 
d="M683 720v-472h129v-81h-129v-167h-95v167h-558v121l508 432h145zM588 639h-18l-445 -373v-18h463v391z" />
    <glyph glyph-name="five" unicode="5" horiz-adv-x="850" 
d="M212.5 96q93.5 -28 198.5 -28q94 0 161.5 25.5t102.5 69t35 97.5q0 48 -33 85t-92 58t-134 21q-177 0 -259 -83h-95v379h664v-78h-569v-201q47 29 115 46.5t149 17.5q96 0 176 -29.5t126.5 -84.5t46.5 -128q0 -82 -46.5 -144.5t-136.5 -98t-216 -35.5q-101 0 -187.5 22.5
t-148.5 56.5v98q49 -38 142.5 -66z" />
    <glyph glyph-name="six" unicode="6" horiz-adv-x="860" 
d="M98.5 557.5q53.5 86.5 150 132t224.5 45.5q98 0 172 -21t135 -61v-92q-52 45 -131 70.5t-168 25.5q-166 0 -260.5 -78t-94.5 -219v-19q38 59 120.5 101.5t198.5 42.5q106 0 192.5 -31.5t137 -88.5t50.5 -130t-50.5 -130t-137 -88.5t-192.5 -31.5q-210 0 -305 102t-95 265
q0 119 53.5 205.5zM198 146.5q38 -39.5 103 -62t144 -22.5q80 0 145 22.5t102.5 62t37.5 88.5t-37.5 88.5t-102.5 62t-145 22.5q-79 0 -144 -22.5t-103 -62t-38 -88.5t38 -88.5z" />
    <glyph glyph-name="seven" unicode="7" horiz-adv-x="735" 
d="M441 400q-97 -144 -108 -400h-90q6 170 53 299t131 207.5t199 101.5v34h-616v78h710v-176q-182 0 -279 -144z" />
    <glyph glyph-name="eight" unicode="8" horiz-adv-x="880" 
d="M100.5 317.5q50.5 44.5 132.5 69.5q-71 21 -116.5 59t-45.5 88q0 62 44.5 107t128 69.5t196.5 24.5t196.5 -24.5t128 -69.5t44.5 -107q0 -50 -45 -88t-117 -59q82 -25 132.5 -69.5t50.5 -109.5q0 -70 -48 -120t-136 -76.5t-206 -26.5t-206 26.5t-136 76.5t-48 120
q0 65 50.5 109.5zM244 451q69 -29 196 -29t196 29t69 84q0 37 -31.5 65.5t-91.5 44.5t-142 16t-142 -16t-91.5 -44.5t-31.5 -65.5q0 -55 69 -84zM231.5 101q76.5 -39 208.5 -39t208.5 39t76.5 105q0 65 -75.5 102t-209.5 37t-209.5 -37t-75.5 -102q0 -66 76.5 -105z" />
    <glyph glyph-name="nine" unicode="9" horiz-adv-x="860" 
d="M761.5 162.5q-53.5 -86.5 -150 -132t-224.5 -45.5q-98 0 -172 21t-135 61v92q52 -45 131 -70.5t168 -25.5q166 0 260.5 78t94.5 219v19q-38 -59 -120.5 -101.5t-198.5 -42.5q-106 0 -192.5 31.5t-137 88.5t-50.5 130t50.5 130t137 88.5t192.5 31.5q210 0 305 -102
t95 -265q0 -119 -53.5 -205.5zM662 573.5q-38 39.5 -103 62t-144 22.5q-80 0 -145 -22.5t-102.5 -62t-37.5 -88.5t37.5 -88.5t102.5 -62t145 -22.5q79 0 144 22.5t103 62t38 88.5t-38 88.5z" />
    <glyph glyph-name="colon" unicode=":" horiz-adv-x="242" 
d="M70.5 385q-20.5 -17 -20.5 -42t20.5 -41.5t50.5 -16.5t50.5 16.5t20.5 41.5t-20.5 42t-50.5 17t-50.5 -17zM70.5 85q-20.5 -17 -20.5 -42t20.5 -41.5t50.5 -16.5t50.5 16.5t20.5 41.5t-20.5 42t-50.5 17t-50.5 -17z" />
    <glyph glyph-name="semicolon" unicode=";" horiz-adv-x="242" 
d="M70.5 385q-20.5 -17 -20.5 -42t20.5 -41.5t50.5 -16.5t50.5 16.5t20.5 41.5t-20.5 42t-50.5 17t-50.5 -17zM85 100h110l-156 -220h-84z" />
    <glyph glyph-name="less_than" unicode="&#x3c;" horiz-adv-x="678" 
d="M260 377v-19l358 -160v-87l-558 252l558 252v-78z" />
    <glyph glyph-name="equal" unicode="=" horiz-adv-x="636" 
d="M576 406h-516v74h516v-74zM576 235h-516v74h516v-74z" />
    <glyph glyph-name="more_than" unicode="&#x3e;" horiz-adv-x="678" 
d="M418 374l-358 160v81l558 -252l-558 -252v84l358 160v19z" />
    <glyph glyph-name="question" unicode="?" horiz-adv-x="702" 
d="M49.5 622q39.5 50 115.5 81.5t179 31.5q110 0 186 -28t114 -75.5t38 -106.5q0 -69 -40.5 -108.5t-122.5 -74.5q-73 -31 -108.5 -64.5t-43.5 -77.5h-104q7 58 46.5 103.5t142.5 92.5q72 32 102 60.5t30 68.5q0 60 -59 96t-181 36q-74 0 -127.5 -22t-81 -54.5t-27.5 -63.5
h-98q0 55 39.5 105zM266.5 85q-20.5 -17 -20.5 -42t20.5 -41.5t50.5 -16.5t50.5 16.5t20.5 41.5t-20.5 42t-50.5 17t-50.5 -17z" />
    <glyph glyph-name="at" unicode="@" horiz-adv-x="1206" 
d="M113 2q73 -100 205 -156t303 -56q129 0 212 30v87q-34 -19 -91.5 -29.5t-120.5 -10.5q-143 0 -254 47t-173 130t-62 188t61 188.5t168.5 130.5t241.5 47q221 0 346.5 -85.5t125.5 -247.5q0 -91 -26 -132.5t-67 -41.5q-80 0 -80 85v254h-90v-58q-45 32 -107.5 52.5
t-131.5 20.5q-96 0 -166 -29.5t-107 -79t-37 -106.5t37 -106.5t107 -79t166 -29.5q76 0 142 23.5t110 60.5q18 -39 58.5 -61.5t93.5 -22.5q84 0 136.5 63.5t52.5 195.5q0 122 -70 212.5t-197 139.5t-296 49q-162 0 -290.5 -56t-200.5 -157t-72 -230q0 -130 73 -230z
M385.5 301.5q30.5 31.5 84.5 49t121 17.5q61 0 115.5 -18t87.5 -49.5t33 -70.5q0 -41 -33 -72.5t-87 -48.5t-116 -17q-68 0 -121.5 17t-84 48.5t-30.5 72.5q0 40 30.5 71.5z" />
    <glyph glyph-name="A" unicode="A" horiz-adv-x="1069" 
d="M1058 0h-112l-131 209h-558l-133 -209h-103l459 720h125zM529 635l-221 -346h456l-218 346h-17z" />
    <glyph glyph-name="B" unicode="B" horiz-adv-x="970" 
d="M808 667q70 -53 70 -135q0 -51 -35.5 -90.5t-83.5 -59.5q68 -17 117 -61.5t49 -112.5q0 -59 -36 -106t-112.5 -74.5t-191.5 -27.5h-475v720h452q176 0 246 -53zM726.5 442q53.5 29 53.5 83q0 55 -54 85t-156 30h-367v-227h367q103 0 156.5 29zM769.5 115q57.5 35 57.5 93
q0 57 -57 91t-177 34h-390v-253h390q119 0 176.5 35z" />
    <glyph glyph-name="C" unicode="C" horiz-adv-x="962" 
d="M772 92.5q-84 -25.5 -184 -25.5q-138 0 -238.5 39.5t-152.5 106.5t-52 147t52 146.5t152.5 106t238.5 39.5q101 0 181.5 -26.5t133.5 -69.5v102q-58 37 -138.5 56.5t-176.5 19.5q-164 0 -286 -50.5t-187 -136t-65 -187.5q0 -109 64.5 -194.5t186 -133.5t287.5 -48
q99 0 182.5 19.5t141.5 58.5v103q-56 -47 -140 -72.5z" />
    <glyph glyph-name="D" unicode="D" horiz-adv-x="1039" 
d="M858.5 623.5q130.5 -96.5 130.5 -263.5q0 -360 -578 -360h-301v720h301q317 0 447.5 -96.5zM771.5 149.5q119.5 69.5 119.5 210.5t-120 210.5t-364 69.5h-202v-560h202q245 0 364.5 69.5z" />
    <glyph glyph-name="E" unicode="E" horiz-adv-x="935" 
d="M865 640h-660v-219h570v-80h-570v-261h660v-80h-755v720h755v-80z" />
    <glyph glyph-name="F" unicode="F" horiz-adv-x="855" 
d="M825 640h-620v-234h538v-80h-538v-326h-95v720h715v-80z" />
    <glyph glyph-name="G" unicode="G" horiz-adv-x="1076" 
d="M128.5 552q78.5 86 211.5 134.5t290 48.5q105 0 203 -20t159 -55v-102q-50 41 -146 68t-216 27q-131 0 -242 -38t-177 -105t-66 -150t66 -149.5t177 -104.5t242 -38q176 0 281 43v197h-516v80h606v-328q-129 -75 -371 -75q-161 0 -293.5 48t-209.5 133.5t-77 193.5
q0 106 78.5 192z" />
    <glyph glyph-name="H" unicode="H" horiz-adv-x="1045" 
d="M205 421h635v299h95v-720h-95v341h-635v-341h-95v720h95v-299z" />
    <glyph glyph-name="I" unicode="I" horiz-adv-x="315" 
d="M110 0v720h95v-720h-95z" />
    <glyph glyph-name="J" unicode="J" horiz-adv-x="711" 
d="M132 7.5q70 -22.5 151 -22.5q91 0 169 30t128.5 103.5t50.5 194.5v407h-95v-388q0 -154 -72.5 -211.5t-185.5 -57.5q-77 0 -145.5 30t-107.5 71v-102q37 -32 107 -54.5z" />
    <glyph glyph-name="K" unicode="K" horiz-adv-x="973" 
d="M205 424h20l689 311v-83l-610 -274v-16l669 -362h-178l-571 309h-19v-309h-95v720h95v-296z" />
    <glyph glyph-name="L" unicode="L" horiz-adv-x="810" 
d="M205 80h585v-80h-680v720h95v-640z" />
    <glyph glyph-name="M" unicode="M" horiz-adv-x="1256" 
d="M625 89h22l337 631h162v-720h-95v629h-24l-335 -629h-121l-345 629h-24v-629h-92v720h169z" />
    <glyph glyph-name="N" unicode="N" horiz-adv-x="1055" 
d="M827 90h23v630h95v-720h-154l-563 629h-23v-629h-95v720h160z" />
    <glyph glyph-name="O" unicode="O" horiz-adv-x="1096" 
d="M289.5 685.5q-113.5 -49.5 -176.5 -135t-63 -190.5q0 -109 63 -194t176 -133t259 -48t259 48t176 133t63 194q0 105 -63 190.5t-176.5 135t-258.5 49.5t-258.5 -49.5zM757 613.5q92 -39.5 143 -106.5t51 -147q0 -79 -51 -146.5t-143 -107t-209 -39.5t-209 39.5t-143 107
t-51 146.5q0 80 51 147t143 106.5t209 39.5t209 -39.5z" />
    <glyph glyph-name="P" unicode="P" horiz-adv-x="939" 
d="M827 659q77 -61 77 -154q0 -89 -77.5 -152t-267.5 -63h-354v-290h-95v720h449q191 0 268 -61zM748.5 407q58.5 37 58.5 98t-58.5 98t-189.5 37h-354v-270h354q131 0 189.5 37z" />
    <glyph glyph-name="Q" unicode="Q" horiz-adv-x="1097" 
d="M113 166q63 -85 176 -133t259 -48q156 0 275 55h21l65 -40h153l-141 86v15q60 49 92.5 115.5t32.5 143.5q0 105 -63 190.5t-176.5 135t-258.5 49.5t-258.5 -49.5t-176.5 -135t-63 -190.5q0 -109 63 -194zM196 507q51 67 143 106.5t209 39.5t209 -39.5t143 -106.5t51 -147
q0 -60 -30 -114t-85 -95h-22l-298 182v-93l212 -129v-15q-81 -29 -180 -29q-117 0 -209 39.5t-143 107t-51 146.5q0 80 51 147z" />
    <glyph glyph-name="R" unicode="R" horiz-adv-x="974" 
d="M762 688.5q75 -31.5 103.5 -78t28.5 -96.5t-28.5 -96.5t-103.5 -78t-203 -31.5h-30v-13l445 -295h-153l-462 308h-154v-308h-95v720h449q128 0 203 -31.5zM743 425q54 37 54 89t-54 89t-184 37h-354v-252h354q130 0 184 37z" />
    <glyph glyph-name="S" unicode="S" horiz-adv-x="927" 
d="M263.5 446.5q-68.5 14.5 -100.5 33t-32 49.5q0 38 43 66t120.5 43.5t178.5 15.5q110 0 212.5 -23t165.5 -62v95q-67 32 -167 51.5t-211 19.5q-132 0 -230 -25.5t-150.5 -72t-52.5 -108.5q0 -58 33 -91.5t117 -57.5t256 -51q141 -22 213.5 -39.5t104 -38.5t31.5 -54
q0 -68 -100.5 -99t-244.5 -31q-114 0 -229.5 26.5t-176.5 68.5v-94q54 -36 172 -59.5t230 -23.5q200 0 320.5 53.5t120.5 158.5q0 61 -37.5 98t-122 62t-245.5 51q-150 24 -218.5 38.5z" />
    <glyph glyph-name="T" unicode="T" horiz-adv-x="905" 
d="M890 640h-390v-640h-95v640h-390v80h875v-80z" />
    <glyph glyph-name="U" unicode="U" horiz-adv-x="937" 
d="M123.5 174.5q48.5 -89.5 138 -139.5t209.5 -50t208.5 50t135.5 139t47 204v342h-90v-337q0 -99 -37.5 -170t-105.5 -108.5t-158 -37.5q-86 0 -154 37.5t-107.5 109t-39.5 169.5v337h-95v-342q0 -114 48.5 -203.5z" />
    <glyph glyph-name="V" unicode="V" horiz-adv-x="926" 
d="M481 90l339 630h106l-388 -720h-136l-402 720h111l352 -630h18z" />
    <glyph glyph-name="W" unicode="W" horiz-adv-x="1355" 
d="M379 90l236 630h150l235 -630h20l231 630h94l-264 -720h-150l-235 629h-21l-236 -629h-154l-275 720h107l241 -630h21z" />
    <glyph glyph-name="X" unicode="X" horiz-adv-x="988" 
d="M62 623v112l416 -330h24l409 330v-100l-346 -279v-20l423 -336h-141l-354 281h-21l-348 -281h-124l409 330v18z" />
    <glyph glyph-name="Y" unicode="Y" horiz-adv-x="901" 
d="M475 340l321 380h105l-393 -466v-254h-95v254l-413 466h116l337 -380h22z" />
    <glyph glyph-name="Z" unicode="Z" horiz-adv-x="880" 
d="M724 640h-674v80h780v-125l-672 -488v-27h672v-80h-780v127l674 489v24z" />
    <glyph glyph-name="bracketleft" unicode="[" horiz-adv-x="430" 
d="M420 -99v-73h-310v985h310v-73h-220v-839h220z" />
    <glyph glyph-name="backslash" unicode="\" horiz-adv-x="540" 
d="M540 -160h-90l-450 1030h90z" />
    <glyph glyph-name="bracketright" unicode="]" horiz-adv-x="430" 
d="M10 -172v73h220v839h-220v73h310v-985h-310z" />
    <glyph glyph-name="underscore" unicode="_" horiz-adv-x="576" 
d="M576 -95h-576v75h576v-75z" />
    <glyph glyph-name="grave" unicode="`" horiz-adv-x="273" 
d="M273 587h-99l-175 170h116z" />
    <glyph glyph-name="a" unicode="a" horiz-adv-x="794" 
d="M115 23.5q75 -38.5 211 -38.5q113 0 188.5 30t126.5 86v-101h88v327q0 107 -96 157.5t-261 50.5q-86 0 -165 -17.5t-136 -54.5v-92q51 40 129 63.5t169 23.5q137 0 206 -29t69 -76q0 -23 -24.5 -34t-72 -15t-154.5 -8l-85 -4q-141 -7 -204.5 -43.5t-63.5 -105.5
q0 -81 75 -119.5zM600.5 148.5q-40.5 -42.5 -109.5 -64.5t-153 -22q-202 0 -202 81q0 40 46 58t143 21q15 0 22 1q133 4 199.5 11t94.5 28v-11q0 -60 -40.5 -102.5z" />
    <glyph glyph-name="b" unicode="b" horiz-adv-x="859" 
d="M293 506q71 29 161 29q106 0 189.5 -38.5t129.5 -102t46 -134.5q0 -77 -44.5 -139.5t-126.5 -99t-189 -36.5q-90 0 -163 29.5t-126 77.5v-92h-90v720h90v-291q52 48 123 77zM191 159q36 -45 101 -71t149 -26t149 26t101 71t36 101t-36 101t-101 71t-149 26t-149 -26
t-101 -71t-36 -101t36 -101z" />
    <glyph glyph-name="c" unicode="c" horiz-adv-x="708" 
d="M570 76.5q-58 -14.5 -125 -14.5q-94 0 -165 25t-109.5 70t-38.5 103t38.5 103t109.5 70t165 25q137 0 218 -59v89q-89 47 -218 47q-118 0 -210 -36t-143.5 -99t-51.5 -140q0 -82 50.5 -144.5t142.5 -96.5t212 -34q63 0 121 11.5t102 34.5v90q-40 -30 -98 -44.5z" />
    <glyph glyph-name="d" unicode="d" horiz-adv-x="859" 
d="M563 14.5q-73 -29.5 -163 -29.5q-107 0 -189 36.5t-126.5 99t-44.5 139.5q0 71 46 134.5t129.5 102t189.5 38.5q90 0 161 -29t123 -77v291h90v-720h-90v92q-53 -48 -126 -77.5zM668 361q-36 45 -101 71t-149 26t-149 -26t-101 -71t-36 -101t36 -101t101 -71t149 -26
t149 26t101 71t36 101t-36 101z" />
    <glyph glyph-name="e" unicode="e" horiz-adv-x="820" 
d="M148 54q108 -69 319 -69q75 0 148.5 15.5t126.5 42.5v83q-52 -31 -124 -48.5t-151 -17.5q-163 0 -248 46.5t-88 146.5h649v12q0 74 -46.5 136t-130.5 98t-193 36q-108 0 -192.5 -36.5t-131 -99.5t-46.5 -139q0 -137 108 -206zM236 424q71 41 174 41q106 0 177 -41
t93 -106h-539q24 65 95 106z" />
    <glyph glyph-name="f" unicode="f" horiz-adv-x="554" 
d="M215 681.5q75 53.5 190 53.5q47 0 87 -10t62 -25v-85q-24 20 -61.5 31.5t-79.5 11.5q-83 0 -130 -34t-51 -104h282v-73h-282v-447h-92v447h-130v73h130v1q0 107 75 160.5z" />
    <glyph glyph-name="g" unicode="g" horiz-adv-x="859" 
d="M86 125.5q46 -63.5 129.5 -102t189.5 -38.5q171 0 284 106v-41q0 -88 -75.5 -135.5t-208.5 -47.5q-95 0 -171.5 23t-132.5 63v-91q48 -31 127.5 -51.5t170.5 -20.5q113 0 199 31.5t133.5 93.5t47.5 149v456h-90v-90q-112 105 -289 105q-107 0 -189 -36.5t-126.5 -99
t-44.5 -139.5q0 -71 46 -134.5zM168 361q36 45 101 71t149 26t149 -26t101 -71t36 -101t-36 -101t-101 -71t-149 -26t-149 26t-101 71t-36 101t36 101z" />
    <glyph glyph-name="h" unicode="h" 
d="M279 502.5q67 32.5 159 32.5q128 0 206 -65t78 -204v-266h-90v251q0 107 -54.5 157t-161.5 50q-106 0 -176 -50t-70 -171v-237h-90v720h90v-301q42 51 109 83.5z" />
    <glyph glyph-name="i" unicode="i" horiz-adv-x="250" 
d="M71 715q-21 -17 -21 -42t21 -41.5t54 -16.5t54 16.5t21 41.5t-21 42t-54 17t-54 -17zM80 520h90v-520h-90v520z" />
    <glyph glyph-name="j" unicode="j" horiz-adv-x="250" 
d="M71 715q-21 -17 -21 -42t21 -41.5t54 -16.5t54 16.5t21 41.5t-21 42t-54 17t-54 -17zM113.5 -154.5q-56.5 -55.5 -152.5 -55.5q-39 0 -71 9.5t-54 25.5v85q24 -20 54.5 -31.5t59.5 -11.5q130 0 130 129v524h90v-524q0 -95 -56.5 -150.5z" />
    <glyph glyph-name="k" unicode="k" horiz-adv-x="730" 
d="M170 320h22l468 215v-77l-391 -180v-19l461 -259h-158l-379 213h-23v-213h-90v720h90v-400z" />
    <glyph glyph-name="l" unicode="l" horiz-adv-x="250" 
d="M80 720h90v-720h-90v720z" />
    <glyph glyph-name="m" unicode="m" horiz-adv-x="1141" 
d="M383 535q59 0 121 -28.5t94 -95.5q33 54 91.5 89t147.5 35q49 0 103.5 -20.5t95 -74.5t40.5 -147v-293h-90v265q0 193 -164 193q-200 0 -200 -203v-255h-90v265q0 193 -164 193q-198 0 -198 -203v-255h-90v520h90v-85q78 100 213 100z" />
    <glyph glyph-name="n" unicode="n" 
d="M279 502.5q67 32.5 159 32.5q128 0 206 -65t78 -204v-266h-90v251q0 107 -54.5 157t-161.5 50q-106 0 -176 -50t-70 -171v-237h-90v520h90v-101q42 51 109 83.5z" />
    <glyph glyph-name="o" unicode="o" horiz-adv-x="836" 
d="M223 498.5q-86 -36.5 -134.5 -99.5t-48.5 -139q0 -77 48.5 -140t134.5 -99t195 -36t195 36.5t134.5 99.5t48.5 139t-48.5 139t-134.5 99.5t-195 36.5t-195 -36.5zM567 432q65 -26 101 -71t36 -101t-36 -101t-101 -71t-149 -26t-149 26t-101 71t-36 101t36 101t101 71
t149 26t149 -26z" />
    <glyph glyph-name="p" unicode="p" horiz-adv-x="859" 
d="M296 505.5q73 29.5 163 29.5q107 0 189 -36.5t126.5 -99t44.5 -139.5q0 -71 -46 -134.5t-129.5 -102t-189.5 -38.5q-90 0 -161 29t-123 77v-291h-90v720h90v-92q53 48 126 77.5zM191 159q36 -45 101 -71t149 -26t149 26t101 71t36 101t-36 101t-101 71t-149 26t-149 -26
t-101 -71t-36 -101t36 -101z" />
    <glyph glyph-name="q" unicode="q" horiz-adv-x="859" 
d="M566 14q-71 -29 -161 -29q-106 0 -189.5 38.5t-129.5 102t-46 134.5q0 77 44.5 139.5t126.5 99t189 36.5q90 0 163 -29.5t126 -77.5v92h90v-720h-90v291q-52 -48 -123 -77zM668 361q-36 45 -101 71t-149 26t-149 -26t-101 -71t-36 -101t36 -101t101 -71t149 -26t149 26
t101 71t36 101t-36 101z" />
    <glyph glyph-name="r" unicode="r" horiz-adv-x="569" 
d="M272 504.5q60 30.5 137 30.5q87 0 140 -28v-91q-22 19 -60 30.5t-91 11.5q-52 0 -103.5 -19.5t-87 -63.5t-35.5 -113v-262h-92v520h92v-94q40 48 100 78.5z" />
    <glyph glyph-name="s" unicode="s" horiz-adv-x="711" 
d="M163.5 1q78.5 -16 168.5 -16q104 0 181 20.5t117.5 58.5t40.5 87q0 43 -27 70t-89.5 44.5t-175.5 30.5q-104 12 -154 20.5t-72.5 22t-22.5 36.5q0 24 31 44t87.5 31.5t130.5 11.5q81 0 149 -13.5t116 -40.5v78q-33 22 -102.5 35.5t-162.5 13.5q-104 0 -181 -22
t-117.5 -60t-40.5 -84q0 -42 29.5 -69.5t91.5 -44.5t165 -28q106 -12 157.5 -21t73.5 -22t22 -35q0 -39 -64 -64t-175 -25q-94 0 -173 16.5t-122 42.5v-81q40 -21 118.5 -37z" />
    <glyph glyph-name="t" unicode="t" horiz-adv-x="564" 
d="M232 720v-200h272v-75h-272v-234q0 -76 47.5 -112.5t133.5 -36.5q42 0 79.5 8.5t61.5 22.5v-78q-20 -15 -60 -22.5t-89 -7.5q-115 0 -190 53.5t-75 160.5v246h-130v75h130v200h92z" />
    <glyph glyph-name="u" unicode="u" 
d="M209.5 112q54.5 -50 161.5 -50q106 0 176 50t70 171v237h90v-520h-90v101q-42 -51 -109 -83.5t-159 -32.5q-77 0 -141.5 30t-103.5 90.5t-39 148.5v266h90v-251q0 -107 54.5 -157z" />
    <glyph glyph-name="v" unicode="v" horiz-adv-x="722" 
d="M380 92l249 428h93l-302 -520h-108l-312 520h102l256 -428h22z" />
    <glyph glyph-name="w" unicode="w" horiz-adv-x="1045" 
d="M297 90l174 430h115l176 -430h21l174 430h83l-211 -520h-115l-177 432h-19l-175 -432h-125l-213 520h95l176 -430h21z" />
    <glyph glyph-name="x" unicode="x" horiz-adv-x="788" 
d="M53 439v96l323 -235h21l311 235v-85l-251 -190v-19l331 -241h-132l-266 194h-20l-257 -194h-113l310 234v18z" />
    <glyph glyph-name="y" unicode="y" horiz-adv-x="717" 
d="M391 125l236 395h90l-430 -720h-90l129 217l-326 503h107l256 -395h28z" />
    <glyph glyph-name="z" unicode="z" horiz-adv-x="673" 
d="M524 447h-479v73h583v-110l-467 -314v-23h467v-73h-583v105l479 322v20z" />
    <glyph glyph-name="left_curly_bracket" unicode="{" horiz-adv-x="430" 
d="M136.5 373.5q23.5 18.5 23.5 58.5v162q0 107 61.5 163t184.5 56h14v-74h-14q-79 0 -116.5 -34t-37.5 -117v-160q0 -75 -79 -107q79 -32 79 -108v-160q0 -83 37.5 -117t116.5 -34h14v-74h-14q-123 0 -184.5 56t-61.5 163v162q0 40 -23.5 58.5t-76.5 18.5v69
q53 0 76.5 18.5z" />
    <glyph glyph-name="bar" unicode="|" horiz-adv-x="305" 
d="M110 870h85v-1030h-85v1030z" />
    <glyph glyph-name="right_curly_bracket" unicode="}" horiz-adv-x="430" 
d="M293.5 267.5q-23.5 -18.5 -23.5 -58.5v-162q0 -107 -61.5 -163t-184.5 -56h-14v74h14q79 0 116.5 34t37.5 117v160q0 76 79 108q-79 32 -79 107v160q0 83 -37.5 117t-116.5 34h-14v74h14q123 0 184.5 -56t61.5 -163v-162q0 -40 23.5 -58.5t76.5 -18.5v-69
q-53 0 -76.5 -18.5z" />
    <glyph glyph-name="uni00A0" unicode="&#xa0;" horiz-adv-x="300" 
 />
    <glyph glyph-name="exclamdown" unicode="&#xa1;" horiz-adv-x="242" 
d="M171.5 435q20.5 17 20.5 42t-20.5 41.5t-50.5 16.5t-50.5 -16.5t-20.5 -41.5t20.5 -42t50.5 -17t50.5 17zM166 320v-520h-90v520h90z" />
    <glyph glyph-name="cent" unicode="&#xa2;" horiz-adv-x="708" 
d="M80 129.5q40 -57.5 113.5 -93.5t171.5 -47v-84h74v80h6q63 0 121 11.5t102 34.5v90q-40 -30 -98 -44.5t-125 -14.5h-6v396h6q137 0 218 -59v89q-89 47 -218 47h-6v90h-74v-95q-97 -11 -170.5 -49t-114 -95.5t-40.5 -125.5q0 -73 40 -130.5zM194.5 386q62.5 52 170.5 67
v-386q-108 15 -170.5 67t-62.5 126t62.5 126z" />
    <glyph glyph-name="sterling" unicode="&#xa3;" horiz-adv-x="902" 
d="M195 200q0 -49 -40.5 -78t-86.5 -40v-82h774v82h-621q31 19 48 48.5t17 69.5q0 39 -21 84h466v75h-511q-30 45 -44.5 74.5t-14.5 60.5q0 48 39.5 84t110 56t162.5 20q105 0 198 -20.5t155 -58.5v95q-65 32 -156 48.5t-197 16.5q-123 0 -214 -30t-140 -84.5t-49 -126.5
q0 -37 12 -69t34 -66h-56v-75h106q29 -46 29 -84z" />
    <glyph glyph-name="yen" unicode="&#xa5;" horiz-adv-x="901" 
d="M475 340l321 380h105l-336 -398h209v-75h-266v-60h266v-75h-266v-112h-95v112h-264v75h264v60h-264v75h204l-353 398h116l337 -380h22z" />
    <glyph glyph-name="brokenbar" unicode="&#xa6;" horiz-adv-x="305" 
d="M110 870h85v-410h-85v410zM110 305h85v-465h-85v465z" />
    <glyph glyph-name="section" unicode="&#xa7;" horiz-adv-x="711" 
d="M70.5 194q30.5 -32 101 -53.5t200.5 -40.5q110 -16 158.5 -44.5t48.5 -71.5q0 -52 -65.5 -81.5t-173.5 -29.5q-93 0 -172 17.5t-123 43.5v-81q40 -21 118.5 -37t168.5 -16q100 0 176.5 22.5t119.5 64.5t43 99q0 48 -23 81t-74 56q97 54 97 128q0 50 -26.5 83t-92 57
t-184.5 43q-90 15 -142 30t-75 33.5t-23 43.5q0 52 69.5 79t181.5 27q75 0 146.5 -13.5t118.5 -40.5v78q-32 21 -104.5 35t-160.5 14q-98 0 -175 -21t-120.5 -61.5t-43.5 -97.5q0 -44 26.5 -75t85.5 -53q-56 -28 -84 -60.5t-28 -74.5q0 -51 30.5 -83zM157.5 339.5
q27.5 28.5 73.5 47.5q61 -14 137 -27q79 -13 124.5 -27.5t66 -33t20.5 -45.5q0 -28 -20.5 -56.5t-59.5 -49.5q-61 16 -138 27q-89 13 -138 26.5t-71 32.5t-22 49q0 28 27.5 56.5z" />
    <glyph glyph-name="dieresis" unicode="&#xa8;" horiz-adv-x="564" 
d="M132.5 715q-20.5 -17 -20.5 -42t20.5 -41.5t50.5 -16.5t50.5 16.5t20.5 41.5t-20.5 42t-50.5 17t-50.5 -17zM382.5 715q-20.5 -17 -20.5 -42t20.5 -41.5t50.5 -16.5t50.5 16.5t20.5 41.5t-20.5 42t-50.5 17t-50.5 -17z" />
    <glyph glyph-name="copyright" unicode="&#xa9;" horiz-adv-x="1096" 
d="M289.5 685.5q-113.5 -49.5 -176.5 -135t-63 -190.5q0 -109 63 -194t176 -133t259 -48t259 48t176 133t63 194q0 105 -63 190.5t-176.5 135t-258.5 49.5t-258.5 -49.5zM771 636.5q99 -42.5 155.5 -115.5t56.5 -161t-56.5 -161t-156 -115.5t-222.5 -42.5t-222.5 42.5
t-156 115.5t-56.5 161t56.5 161t155.5 115.5t223 42.5t223 -42.5zM699.5 200q-53.5 -16 -118.5 -16q-83 0 -146 23t-97 63.5t-34 91.5q0 50 33.5 90.5t96 63.5t145.5 23q66 0 118 -17t86 -45v77q-78 49 -204 49q-101 0 -180.5 -33t-123.5 -88t-44 -120q0 -70 44 -125.5
t123 -87t181 -31.5q131 0 210 51l3 77q-39 -30 -92.5 -46z" />
    <glyph glyph-name="ordfeminine" unicode="&#xaa;" horiz-adv-x="504" 
d="M84 438q49 -22 127 -22q125 0 184 61v-53h64v184q0 61 -60 89t-156 28q-53 0 -104 -10t-84 -30v-64q29 22 80 35t106 13q76 0 113 -13t37 -33q0 -13 -14 -19.5t-42 -9t-89 -4.5l-45 -2q-166 -7 -166 -83q0 -45 49 -67zM134 529.5q25 7.5 77 9.5q78 3 120 8t58 18v-8
q0 -44 -48.5 -65.5t-122.5 -21.5q-47 0 -78 9t-31 26t25 24.5z" />
    <glyph glyph-name="guillemotleft" unicode="&#xab;" horiz-adv-x="555" 
d="M147 273v-17l195 -172h-104l-198 177l198 177h94zM345 273v-17l195 -172h-104l-198 177l198 177h94z" />
    <glyph glyph-name="neg" unicode="&#xac;" horiz-adv-x="696" 
d="M60 376v74h576v-256h-83v182h-493z" />
    <glyph glyph-name="registered" unicode="&#xae;" horiz-adv-x="665" 
d="M175.5 706q-68.5 -30 -107 -82t-38.5 -116q0 -65 38 -117t107 -81t157 -29q89 0 158 29t107 81t38 117q0 64 -38.5 116t-107.5 82t-157 30t-156.5 -30zM462 667q57 -25 88.5 -67t31.5 -92t-31.5 -91.5t-88.5 -66.5t-130 -25t-129.5 25t-88 66.5t-31.5 91.5t31.5 92
t88.5 67t129 25q73 0 130 -25zM468 612.5q26 -21.5 26 -49.5q0 -29 -26 -51.5t-88 -22.5h-6v-5l146 -94h-73l-154 99h-47v-99h-51v244h185q62 0 88 -21.5zM442 563q0 33 -80 33h-116v-69h116q80 0 80 36z" />
    <glyph glyph-name="macron" unicode="&#xaf;" horiz-adv-x="320" 
d="M0 635v70h320v-70h-320z" />
    <glyph glyph-name="degree" unicode="&#xb0;" horiz-adv-x="404" 
d="M51.5 664q21.5 32 61 51.5t89.5 19.5t89.5 -19.5t61 -51.5t21.5 -69t-21.5 -69t-61 -51.5t-89.5 -19.5t-89.5 19.5t-61 51.5t-21.5 69t21.5 69zM132 543.5q26 -21.5 70 -21.5t70 21.5t26 51.5t-26 51.5t-70 21.5t-70 -21.5t-26 -51.5t26 -51.5z" />
    <glyph glyph-name="uni00B1" unicode="&#xb1;" horiz-adv-x="636" 
d="M60 406v74h216v220h83v-220h217v-74h-217v-220h-83v220h-216zM576 34h-516v74h516v-74z" />
    <glyph glyph-name="uni00B2" unicode="&#xb2;" horiz-adv-x="372" 
d="M218.5 549.5q54.5 24.5 54.5 66.5q0 59 -94 59q-71 0 -128 -41v57q24 16 61 25.5t78 9.5q73 0 107.5 -26.5t34.5 -73.5q0 -65 -63 -99.5t-146 -50.5h207v-52h-280v74q114 27 168.5 51.5z" />
    <glyph glyph-name="uni00B3" unicode="&#xb3;" horiz-adv-x="383" 
d="M96 477q37 -9 80 -9q117 0 117 55q0 23 -30 34.5t-80 11.5q-40 0 -71 -12v37l157 67v9h-223v49h283v-70l-70 -30v-11q39 -8 64 -30.5t25 -58.5q0 -101 -173 -101q-86 0 -135 27v56q19 -15 56 -24z" />
    <glyph glyph-name="acute" unicode="&#xb4;" horiz-adv-x="272" 
d="M0 587h95l175 170h-112z" />
    <glyph glyph-name="paragraph" unicode="&#xb6;" horiz-adv-x="769" 
d="M112 659q-77 -61 -77 -154q0 -89 77.5 -152t267.5 -63h54v-400h80v830h-134q-191 0 -268 -61zM579 -110v830h80v-830h-80zM188 405q-56 37 -56 100t56 100t192 37h54v-274h-54q-136 0 -192 37z" />
    <glyph glyph-name="periodcentered" unicode="&#xb7;" horiz-adv-x="222" 
d="M60.5 382q-20.5 -17 -20.5 -42t20.5 -41.5t50.5 -16.5t50.5 16.5t20.5 41.5t-20.5 42t-50.5 17t-50.5 -17z" />
    <glyph glyph-name="cedilla" unicode="&#xb8;" horiz-adv-x="227" 
d="M176.5 -65q30.5 -23 30.5 -61q0 -36 -31.5 -60t-86.5 -24q-44 0 -69 14v53q23 -13 66 -13q31 0 44.5 8.5t13.5 21.5q0 12 -13 22t-43 10q-38 0 -58 -12v106h60v-42h1q55 0 85.5 -23z" />
    <glyph glyph-name="uni00B9" unicode="&#xb9;" horiz-adv-x="280" 
d="M73 647.5q22 14.5 35 35t13 37.5h104v-296h-65v232h-9q-16 -32 -48.5 -50.5t-77.5 -18.5v46q26 0 48 14.5z" />
    <glyph glyph-name="ordmasculine" unicode="&#xba;" horiz-adv-x="476" 
d="M126.5 704.5q-48.5 -20.5 -75 -55.5t-26.5 -78t26.5 -78t75 -55.5t111.5 -20.5q62 0 110.5 20.5t75.5 56t27 77.5t-27 77.5t-75.5 56t-110.5 20.5q-63 0 -111.5 -20.5zM342.5 641q39.5 -28 39.5 -70q0 -43 -39.5 -70.5t-104.5 -27.5t-104.5 27.5t-39.5 70.5q0 42 39.5 70
t104.5 28t104.5 -28z" />
    <glyph glyph-name="guillemotright" unicode="&#xbb;" horiz-adv-x="555" 
d="M210 249v17l-195 172h104l198 -177l-198 -177h-94zM408 249v17l-195 172h104l198 -177l-198 -177h-94z" />
    <glyph glyph-name="questiondown" unicode="&#xbf;" horiz-adv-x="692" 
d="M435.5 435q20.5 17 20.5 42t-20.5 41.5t-50.5 16.5t-50.5 -16.5t-20.5 -41.5t20.5 -42t50.5 -17t50.5 17zM652.5 -102q-39.5 -50 -115.5 -81.5t-179 -31.5q-110 0 -186 28t-114 75.5t-38 106.5q0 69 40.5 108.5t122.5 74.5q73 31 108.5 64.5t43.5 77.5h104
q-7 -58 -46.5 -103.5t-142.5 -92.5q-72 -32 -102 -60.5t-30 -68.5q0 -60 59 -96t181 -36q74 0 127.5 22t81 54.5t27.5 63.5h98q0 -55 -39.5 -105z" />
    <glyph glyph-name="Agrave" unicode="&#xc0;" horiz-adv-x="1037" 
d="M549 790h-100l-149 140h116zM1058 0h-112l-131 209h-558l-133 -209h-103l459 720h125zM529 635l-221 -346h456l-218 346h-17z" />
    <glyph glyph-name="Aacute" unicode="&#xc1;" horiz-adv-x="1037" 
d="M486 790h86l149 140h-102zM1058 0h-112l-131 209h-558l-133 -209h-103l459 720h125zM529 635l-221 -346h456l-218 346h-17z" />
    <glyph glyph-name="Acircumflex" unicode="&#xc2;" horiz-adv-x="1037" 
d="M494 930h45l191 -155h-106l-96 78h-24l-96 -78h-105zM815 209h-558l-133 -209h-103l459 720h125l453 -720h-112zM529 635l-221 -346h456l-218 346h-17z" />
    <glyph glyph-name="Atilde" unicode="&#xc3;" horiz-adv-x="1037" 
d="M387.5 846.5q15.5 19.5 39.5 19.5q18 0 33 -7.5t34 -23.5q28 -21 51.5 -32.5t61.5 -11.5q59 0 95.5 34.5t36.5 90.5h-75q0 -24 -15.5 -43.5t-39.5 -19.5q-18 0 -33 7.5t-34 23.5q-28 21 -51.5 32.5t-61.5 11.5q-59 0 -95.5 -34.5t-36.5 -90.5h75q0 24 15.5 43.5zM1058 0
h-112l-131 209h-558l-133 -209h-103l459 720h125zM529 635l-221 -346h456l-218 346h-17z" />
    <glyph glyph-name="Adieresis" unicode="&#xc4;" horiz-adv-x="1037" 
d="M340.5 894q-20.5 -17 -20.5 -42t20.5 -41.5t50.5 -16.5t50.5 16.5t20.5 41.5t-20.5 42t-50.5 17t-50.5 -17zM598.5 894q-20.5 -17 -20.5 -42t20.5 -41.5t50.5 -16.5t50.5 16.5t20.5 41.5t-20.5 42t-50.5 17t-50.5 -17zM1058 0h-112l-131 209h-558l-133 -209h-103l459 720
h125zM529 635l-221 -346h456l-218 346h-17z" />
    <glyph glyph-name="Aring" unicode="&#xc5;" horiz-adv-x="1037" 
d="M438.5 934.5q34.5 29.5 84.5 29.5t84.5 -29.5t34.5 -72.5t-34.5 -72.5t-84.5 -29.5t-84.5 29.5t-34.5 72.5t34.5 72.5zM482.5 895.5q-17.5 -13.5 -17.5 -33.5t17.5 -33.5t41.5 -13.5q25 0 41 13.5t16 33.5t-16 33.5t-41 13.5q-24 0 -41.5 -13.5zM1058 0h-112l-131 209
h-558l-133 -209h-103l459 720h125zM529 635l-221 -346h456l-218 346h-17z" />
    <glyph glyph-name="AE" unicode="&#xc6;" horiz-adv-x="1645" 
d="M1575 640h-660v-219h570v-80h-570v-261h660v-80h-755v210h-477l-223 -210h-120l764 720h811v-80zM801 642l-373 -352h392v352h-19z" />
    <glyph glyph-name="Ccedilla" unicode="&#xc7;" horiz-adv-x="962" 
d="M110.5 177q60.5 -82 170 -132.5t251.5 -58.5v-92q20 12 58 12q30 0 43 -10t13 -22q0 -13 -13.5 -21.5t-44.5 -8.5q-43 0 -66 13v-53q25 -14 69 -14q55 0 86.5 24t31.5 60q0 38 -30.5 61t-85.5 23h-1v26q98 1 180 20t140 58v103q-56 -47 -140 -72.5t-184 -25.5
q-129 0 -230 40t-157 107t-56 146t56 146t157 106.5t230 39.5q101 0 181.5 -26.5t133.5 -69.5v102q-58 37 -138.5 56.5t-176.5 19.5q-155 0 -278 -51t-191.5 -137t-68.5 -186q0 -101 60.5 -183z" />
    <glyph glyph-name="Egrave" unicode="&#xc8;" horiz-adv-x="935" 
d="M540 790h-100l-149 140h116zM865 640h-660v-219h570v-80h-570v-261h660v-80h-755v720h755v-80z" />
    <glyph glyph-name="Eacute" unicode="&#xc9;" horiz-adv-x="935" 
d="M455 790h86l149 140h-102zM865 640h-660v-219h570v-80h-570v-261h660v-80h-755v720h755v-80z" />
    <glyph glyph-name="Ecircumflex" unicode="&#xca;" horiz-adv-x="935" 
d="M462 930h45l191 -155h-106l-96 78h-24l-96 -78h-105zM775 421v-80h-570v-261h660v-80h-755v720h755v-80h-660v-219h570z" />
    <glyph glyph-name="Edieresis" unicode="&#xcb;" horiz-adv-x="935" 
d="M321.5 894q-20.5 -17 -20.5 -42t20.5 -41.5t50.5 -16.5t50.5 16.5t20.5 41.5t-20.5 42t-50.5 17t-50.5 -17zM579.5 894q-20.5 -17 -20.5 -42t20.5 -41.5t50.5 -16.5t50.5 16.5t20.5 41.5t-20.5 42t-50.5 17t-50.5 -17zM865 640h-660v-219h570v-80h-570v-261h660v-80h-755
v720h755v-80z" />
    <glyph glyph-name="Igrave" unicode="&#xcc;" horiz-adv-x="315" 
d="M185 790h-100l-149 140h116zM110 0v720h95v-720h-95z" />
    <glyph glyph-name="Iacute" unicode="&#xcd;" horiz-adv-x="315" 
d="M130 790h86l149 140h-102zM110 0v720h95v-720h-95z" />
    <glyph glyph-name="Icircumflex" unicode="&#xce;" horiz-adv-x="315" 
d="M170 853h-24l-96 -78h-105l191 155h45l191 -155h-106zM205 0h-95v720h95v-720z" />
    <glyph glyph-name="Idieresis" unicode="&#xcf;" horiz-adv-x="315" 
d="M-22.5 894q-20.5 -17 -20.5 -42t20.5 -41.5t50.5 -16.5t50.5 16.5t20.5 41.5t-20.5 42t-50.5 17t-50.5 -17zM235.5 894q-20.5 -17 -20.5 -42t20.5 -41.5t50.5 -16.5t50.5 16.5t20.5 41.5t-20.5 42t-50.5 17t-50.5 -17zM110 0v720h95v-720h-95z" />
    <glyph glyph-name="Eth" unicode="&#xd0;" horiz-adv-x="1054" 
d="M426 720q317 0 447.5 -96.5t130.5 -263.5q0 -360 -578 -360h-301v331h-100v77h100v312h301zM786.5 149.5q119.5 69.5 119.5 210.5t-120 210.5t-364 69.5h-202v-232h255v-77h-255v-251h202q245 0 364.5 69.5z" />
    <glyph glyph-name="Ntilde" unicode="&#xd1;" horiz-adv-x="1055" 
d="M409.5 846.5q15.5 19.5 39.5 19.5q18 0 33 -7.5t34 -23.5q28 -21 51.5 -32.5t61.5 -11.5q59 0 95.5 34.5t36.5 90.5h-75q0 -24 -15.5 -43.5t-39.5 -19.5q-18 0 -33 7.5t-34 23.5q-28 21 -51.5 32.5t-61.5 11.5q-59 0 -95.5 -34.5t-36.5 -90.5h75q0 24 15.5 43.5zM827 90
h23v630h95v-720h-154l-563 629h-23v-629h-95v720h160z" />
    <glyph glyph-name="Ograve" unicode="&#xd2;" horiz-adv-x="1096" 
d="M602 790h-100l-149 140h116zM289.5 685.5q-113.5 -49.5 -176.5 -135t-63 -190.5q0 -109 63 -194t176 -133t259 -48t259 48t176 133t63 194q0 105 -63 190.5t-176.5 135t-258.5 49.5t-258.5 -49.5zM757 613.5q92 -39.5 143 -106.5t51 -147q0 -79 -51 -146.5t-143 -107
t-209 -39.5t-209 39.5t-143 107t-51 146.5q0 80 51 147t143 106.5t209 39.5t209 -39.5z" />
    <glyph glyph-name="Oacute" unicode="&#xd3;" horiz-adv-x="1096" 
d="M506 790h86l149 140h-102zM289.5 685.5q-113.5 -49.5 -176.5 -135t-63 -190.5q0 -109 63 -194t176 -133t259 -48t259 48t176 133t63 194q0 105 -63 190.5t-176.5 135t-258.5 49.5t-258.5 -49.5zM757 613.5q92 -39.5 143 -106.5t51 -147q0 -79 -51 -146.5t-143 -107
t-209 -39.5t-209 39.5t-143 107t-51 146.5q0 80 51 147t143 106.5t209 39.5t209 -39.5z" />
    <glyph glyph-name="Ocircumflex" unicode="&#xd4;" horiz-adv-x="1096" 
d="M528 930h45l191 -155h-106l-96 78h-24l-96 -78h-105zM806.5 685.5q113.5 -49.5 176.5 -135t63 -190.5q0 -109 -63 -194t-176 -133t-259 -48t-259 48t-176 133t-63 194q0 105 63 190.5t176.5 135t258.5 49.5t258.5 -49.5zM757 106.5q92 39.5 143 107t51 146.5
q0 80 -51 147t-143 106.5t-209 39.5t-209 -39.5t-143 -106.5t-51 -147q0 -79 51 -146.5t143 -107t209 -39.5t209 39.5z" />
    <glyph glyph-name="Otilde" unicode="&#xd5;" horiz-adv-x="1096" 
d="M412.5 846.5q15.5 19.5 39.5 19.5q18 0 33 -7.5t34 -23.5q28 -21 51.5 -32.5t61.5 -11.5q59 0 95.5 34.5t36.5 90.5h-75q0 -24 -15.5 -43.5t-39.5 -19.5q-18 0 -33 7.5t-34 23.5q-28 21 -51.5 32.5t-61.5 11.5q-59 0 -95.5 -34.5t-36.5 -90.5h75q0 24 15.5 43.5z
M289.5 685.5q-113.5 -49.5 -176.5 -135t-63 -190.5q0 -109 63 -194t176 -133t259 -48t259 48t176 133t63 194q0 105 -63 190.5t-176.5 135t-258.5 49.5t-258.5 -49.5zM757 613.5q92 -39.5 143 -106.5t51 -147q0 -79 -51 -146.5t-143 -107t-209 -39.5t-209 39.5t-143 107
t-51 146.5q0 80 51 147t143 106.5t209 39.5t209 -39.5z" />
    <glyph glyph-name="Odieresis" unicode="&#xd6;" horiz-adv-x="1096" 
d="M364.5 894q-20.5 -17 -20.5 -42t20.5 -41.5t50.5 -16.5t50.5 16.5t20.5 41.5t-20.5 42t-50.5 17t-50.5 -17zM622.5 894q-20.5 -17 -20.5 -42t20.5 -41.5t50.5 -16.5t50.5 16.5t20.5 41.5t-20.5 42t-50.5 17t-50.5 -17zM289.5 685.5q-113.5 -49.5 -176.5 -135t-63 -190.5
q0 -109 63 -194t176 -133t259 -48t259 48t176 133t63 194q0 105 -63 190.5t-176.5 135t-258.5 49.5t-258.5 -49.5zM757 613.5q92 -39.5 143 -106.5t51 -147q0 -79 -51 -146.5t-143 -107t-209 -39.5t-209 39.5t-143 107t-51 146.5q0 80 51 147t143 106.5t209 39.5t209 -39.5z
" />
    <glyph glyph-name="multiply" unicode="&#xd7;" horiz-adv-x="556" 
d="M116 545l162 -150l158 150l50 -42l-161 -152l171 -159l-52 -45l-169 157l-165 -157l-50 42l168 159l-164 152z" />
    <glyph glyph-name="Oslash" unicode="&#xd8;" horiz-adv-x="1096" 
d="M88.5 204.5q38.5 -70.5 109.5 -121.5l-124 -118h116l80 76q120 -56 278 -56q146 0 259 48t176 133t63 194q0 82 -39 153t-111 122l125 119h-116l-81 -77q-121 58 -276 58q-145 0 -258.5 -49.5t-176.5 -135t-63 -190.5q0 -85 38.5 -155.5zM196 507q51 67 143 106.5
t209 39.5q118 0 209 -40l-491 -466q-58 41 -89.5 96t-31.5 117q0 80 51 147zM919.5 477q31.5 -55 31.5 -117q0 -79 -51 -146.5t-143 -107t-209 -39.5q-115 0 -209 40l491 466q58 -41 89.5 -96z" />
    <glyph glyph-name="Ugrave" unicode="&#xd9;" horiz-adv-x="937" 
d="M514 790h-100l-149 140h116zM123.5 174.5q48.5 -89.5 138 -139.5t209.5 -50t208.5 50t135.5 139t47 204v342h-90v-337q0 -99 -37.5 -170t-105.5 -108.5t-158 -37.5q-86 0 -154 37.5t-107.5 109t-39.5 169.5v337h-95v-342q0 -114 48.5 -203.5z" />
    <glyph glyph-name="Uacute" unicode="&#xda;" horiz-adv-x="937" 
d="M424 790h86l149 140h-102zM123.5 174.5q48.5 -89.5 138 -139.5t209.5 -50t208.5 50t135.5 139t47 204v342h-90v-337q0 -99 -37.5 -170t-105.5 -108.5t-158 -37.5q-86 0 -154 37.5t-107.5 109t-39.5 169.5v337h-95v-342q0 -114 48.5 -203.5z" />
    <glyph glyph-name="Ucircumflex" unicode="&#xdb;" horiz-adv-x="937" 
d="M446 930h45l191 -155h-106l-96 78h-24l-96 -78h-105zM815 174q-47 -89 -135.5 -139t-208.5 -50t-209.5 50t-138 139.5t-48.5 203.5v342h95v-337q0 -98 39.5 -169.5t107.5 -109t154 -37.5q90 0 158 37.5t105.5 108.5t37.5 170v337h90v-342q0 -115 -47 -204z" />
    <glyph glyph-name="Udieresis" unicode="&#xdc;" horiz-adv-x="937" 
d="M288.5 894q-20.5 -17 -20.5 -42t20.5 -41.5t50.5 -16.5t50.5 16.5t20.5 41.5t-20.5 42t-50.5 17t-50.5 -17zM546.5 894q-20.5 -17 -20.5 -42t20.5 -41.5t50.5 -16.5t50.5 16.5t20.5 41.5t-20.5 42t-50.5 17t-50.5 -17zM123.5 174.5q48.5 -89.5 138 -139.5t209.5 -50
t208.5 50t135.5 139t47 204v342h-90v-337q0 -99 -37.5 -170t-105.5 -108.5t-158 -37.5q-86 0 -154 37.5t-107.5 109t-39.5 169.5v337h-95v-342q0 -114 48.5 -203.5z" />
    <glyph glyph-name="Yacute" unicode="&#xdd;" horiz-adv-x="901" 
d="M435 790h86l149 140h-102zM475 340l321 380h105l-393 -466v-254h-95v254l-413 466h116l337 -380h22z" />
    <glyph glyph-name="Thorn" unicode="&#xde;" horiz-adv-x="919" 
d="M807 534q77 -61 77 -154q0 -89 -77.5 -152t-267.5 -63h-334v-165h-95v720h95v-125h334q191 0 268 -61zM728.5 282q58.5 37 58.5 98t-58.5 98t-189.5 37h-334v-270h334q131 0 189.5 37z" />
    <glyph glyph-name="eszett" unicode="&#xdf;" horiz-adv-x="869" 
d="M218 681.5q76 53.5 195 53.5q110 0 187.5 -39t77.5 -118q0 -32 -16.5 -58t-51.5 -56t-47.5 -48t-12.5 -38q0 -32 30 -49.5t93 -37.5q55 -18 89 -33t58 -42.5t24 -69.5q0 -48 -35 -84.5t-99 -56.5t-150 -20q-72 0 -131.5 13.5t-100.5 35.5v81q95 -57 240 -57
q81 0 132.5 24.5t51.5 66.5q0 28 -28.5 43.5t-88.5 32.5q-55 16 -90 31t-60 43t-25 71q0 33 17.5 61.5t52.5 58.5q26 21 41 42t15 45q0 39 -47 60t-118 21q-191 0 -191 -149v-509h-90v445h-130v75h130q2 108 78 161.5z" />
    <glyph glyph-name="agrave" unicode="&#xe0;" horiz-adv-x="794" 
d="M440 587h-99l-175 170h116zM115 23.5q75 -38.5 211 -38.5q113 0 188.5 30t126.5 86v-101h88v327q0 107 -96 157.5t-261 50.5q-86 0 -165 -17.5t-136 -54.5v-92q51 40 129 63.5t169 23.5q137 0 206 -29t69 -76q0 -23 -24.5 -34t-72 -15t-154.5 -8l-85 -4
q-141 -7 -204.5 -43.5t-63.5 -105.5q0 -81 75 -119.5zM600.5 148.5q-40.5 -42.5 -109.5 -64.5t-153 -22q-202 0 -202 81q0 40 46 58t143 21q15 0 22 1q133 4 199.5 11t94.5 28v-11q0 -60 -40.5 -102.5z" />
    <glyph glyph-name="aacute" unicode="&#xe1;" horiz-adv-x="794" 
d="M342 587h95l175 170h-112zM115 23.5q75 -38.5 211 -38.5q113 0 188.5 30t126.5 86v-101h88v327q0 107 -96 157.5t-261 50.5q-86 0 -165 -17.5t-136 -54.5v-92q51 40 129 63.5t169 23.5q137 0 206 -29t69 -76q0 -23 -24.5 -34t-72 -15t-154.5 -8l-85 -4
q-141 -7 -204.5 -43.5t-63.5 -105.5q0 -81 75 -119.5zM600.5 148.5q-40.5 -42.5 -109.5 -64.5t-153 -22q-202 0 -202 81q0 40 46 58t143 21q15 0 22 1q133 4 199.5 11t94.5 28v-11q0 -60 -40.5 -102.5z" />
    <glyph glyph-name="acircumflex" unicode="&#xe2;" horiz-adv-x="794" 
d="M374 757h38l213 -170h-101l-117 93h-26l-117 -93h-103zM633 484.5q96 -50.5 96 -157.5v-327h-88v101q-51 -56 -126.5 -86t-188.5 -30q-136 0 -211 38.5t-75 119.5q0 69 63.5 105.5t204.5 43.5l85 4q107 4 154.5 8t72 15t24.5 34q0 47 -69 76t-206 29q-91 0 -169 -23.5
t-129 -63.5v92q57 37 136 54.5t165 17.5q165 0 261 -50.5zM546.5 234q-66.5 -7 -199.5 -11q-7 -1 -22 -1q-97 -3 -143 -21t-46 -58q0 -81 202 -81q84 0 153 22t109.5 64.5t40.5 102.5v11q-28 -21 -94.5 -28z" />
    <glyph glyph-name="atilde" unicode="&#xe3;" horiz-adv-x="794" 
d="M268.5 667.5q15.5 19.5 39.5 19.5q18 0 33 -7.5t34 -23.5q28 -21 51.5 -32.5t61.5 -11.5q59 0 95.5 34.5t36.5 90.5h-75q0 -24 -15.5 -43.5t-39.5 -19.5q-18 0 -33 7.5t-34 23.5q-28 21 -51.5 32.5t-61.5 11.5q-59 0 -95.5 -34.5t-36.5 -90.5h75q0 24 15.5 43.5z
M115 23.5q75 -38.5 211 -38.5q113 0 188.5 30t126.5 86v-101h88v327q0 107 -96 157.5t-261 50.5q-86 0 -165 -17.5t-136 -54.5v-92q51 40 129 63.5t169 23.5q137 0 206 -29t69 -76q0 -23 -24.5 -34t-72 -15t-154.5 -8l-85 -4q-141 -7 -204.5 -43.5t-63.5 -105.5
q0 -81 75 -119.5zM600.5 148.5q-40.5 -42.5 -109.5 -64.5t-153 -22q-202 0 -202 81q0 40 46 58t143 21q15 0 22 1q133 4 199.5 11t94.5 28v-11q0 -60 -40.5 -102.5z" />
    <glyph glyph-name="adieresis" unicode="&#xe4;" horiz-adv-x="794" 
d="M217.5 715q-20.5 -17 -20.5 -42t20.5 -41.5t50.5 -16.5t50.5 16.5t20.5 41.5t-20.5 42t-50.5 17t-50.5 -17zM467.5 715q-20.5 -17 -20.5 -42t20.5 -41.5t50.5 -16.5t50.5 16.5t20.5 41.5t-20.5 42t-50.5 17t-50.5 -17zM115 23.5q75 -38.5 211 -38.5q113 0 188.5 30
t126.5 86v-101h88v327q0 107 -96 157.5t-261 50.5q-86 0 -165 -17.5t-136 -54.5v-92q51 40 129 63.5t169 23.5q137 0 206 -29t69 -76q0 -23 -24.5 -34t-72 -15t-154.5 -8l-85 -4q-141 -7 -204.5 -43.5t-63.5 -105.5q0 -81 75 -119.5zM600.5 148.5q-40.5 -42.5 -109.5 -64.5
t-153 -22q-202 0 -202 81q0 40 46 58t143 21q15 0 22 1q133 4 199.5 11t94.5 28v-11q0 -60 -40.5 -102.5z" />
    <glyph glyph-name="aring" unicode="&#xe5;" horiz-adv-x="794" 
d="M314.5 745.5q34.5 29.5 84.5 29.5t84.5 -29.5t34.5 -72.5t-34.5 -72.5t-84.5 -29.5t-84.5 29.5t-34.5 72.5t34.5 72.5zM358.5 706.5q-17.5 -13.5 -17.5 -33.5t17.5 -33.5t41.5 -13.5q25 0 41 13.5t16 33.5t-16 33.5t-41 13.5q-24 0 -41.5 -13.5zM115 23.5
q75 -38.5 211 -38.5q113 0 188.5 30t126.5 86v-101h88v327q0 107 -96 157.5t-261 50.5q-86 0 -165 -17.5t-136 -54.5v-92q51 40 129 63.5t169 23.5q137 0 206 -29t69 -76q0 -23 -24.5 -34t-72 -15t-154.5 -8l-85 -4q-141 -7 -204.5 -43.5t-63.5 -105.5q0 -81 75 -119.5z
M600.5 148.5q-40.5 -42.5 -109.5 -64.5t-153 -22q-202 0 -202 81q0 40 46 58t143 21q15 0 22 1q133 4 199.5 11t94.5 28v-11q0 -60 -40.5 -102.5z" />
    <glyph glyph-name="ae" unicode="&#xe6;" horiz-adv-x="1314" 
d="M110 25.5q70 -40.5 196 -40.5q216 0 325 129q47 -61 137 -95t212 -34q69 0 136 14.5t120 41.5v83q-52 -31 -118 -47.5t-138 -16.5q-144 0 -219.5 51.5t-78.5 141.5h592v12q0 75 -41 136.5t-119.5 97.5t-185.5 36q-83 0 -152.5 -28t-117.5 -78q-48 53 -127 79.5t-179 26.5
q-75 0 -151.5 -18.5t-129.5 -53.5v-92q46 40 120 63.5t158 23.5q110 0 183 -36.5t73 -101.5v-2h-215q-350 0 -350 -164q0 -88 70 -128.5zM775.5 424q62.5 41 150.5 41q105 0 169 -40.5t82 -106.5h-486q22 65 84.5 106zM193 227q57 26 197 26h215v-10q0 -56 -41 -97
t-107 -62.5t-139 -21.5q-87 0 -134.5 21.5t-47.5 70.5q0 47 57 73z" />
    <glyph glyph-name="ccedilla" unicode="&#xe7;" horiz-adv-x="708" 
d="M84.5 125q44.5 -59 124 -94.5t181.5 -43.5v-93q20 12 58 12q30 0 43 -10t13 -22q0 -13 -13.5 -21.5t-44.5 -8.5q-43 0 -66 13v-53q25 -14 69 -14q55 0 86.5 24t31.5 60q0 38 -30.5 61t-85.5 23h-1v27q61 1 118 12.5t100 33.5v90q-40 -30 -98 -44.5t-125 -14.5
q-89 0 -160.5 25.5t-112 70.5t-40.5 102t40.5 102t112 70.5t160.5 25.5q137 0 218 -59v89q-89 47 -218 47q-113 0 -206 -36t-146 -99t-53 -140q0 -76 44.5 -135z" />
    <glyph glyph-name="egrave" unicode="&#xe8;" horiz-adv-x="820" 
d="M458 587h-99l-175 170h116zM148 54q108 -69 319 -69q75 0 148.5 15.5t126.5 42.5v83q-52 -31 -124 -48.5t-151 -17.5q-163 0 -248 46.5t-88 146.5h649v12q0 74 -46.5 136t-130.5 98t-193 36q-108 0 -192.5 -36.5t-131 -99.5t-46.5 -139q0 -137 108 -206zM236 424
q71 41 174 41q106 0 177 -41t93 -106h-539q24 65 95 106z" />
    <glyph glyph-name="eacute" unicode="&#xe9;" horiz-adv-x="820" 
d="M376 587h95l175 170h-112zM148 54q108 -69 319 -69q75 0 148.5 15.5t126.5 42.5v83q-52 -31 -124 -48.5t-151 -17.5q-163 0 -248 46.5t-88 146.5h649v12q0 74 -46.5 136t-130.5 98t-193 36q-108 0 -192.5 -36.5t-131 -99.5t-46.5 -139q0 -137 108 -206zM236 424
q71 41 174 41q106 0 177 -41t93 -106h-539q24 65 95 106z" />
    <glyph glyph-name="ecircumflex" unicode="&#xea;" horiz-adv-x="820" 
d="M394 757h38l213 -170h-101l-117 93h-26l-117 -93h-103zM219 106.5q85 -46.5 248 -46.5q79 0 151 17.5t124 48.5v-83q-53 -27 -126.5 -42.5t-148.5 -15.5q-211 0 -319 69t-108 206q0 76 46.5 139t131 99.5t192.5 36.5q109 0 193 -36t130.5 -98t46.5 -136v-12h-649
q3 -100 88 -146.5zM587 424q-71 41 -177 41q-103 0 -174 -41t-95 -106h539q-22 65 -93 106z" />
    <glyph glyph-name="edieresis" unicode="&#xeb;" horiz-adv-x="820" 
d="M240.5 715q-20.5 -17 -20.5 -42t20.5 -41.5t50.5 -16.5t50.5 16.5t20.5 41.5t-20.5 42t-50.5 17t-50.5 -17zM490.5 715q-20.5 -17 -20.5 -42t20.5 -41.5t50.5 -16.5t50.5 16.5t20.5 41.5t-20.5 42t-50.5 17t-50.5 -17zM148 54q108 -69 319 -69q75 0 148.5 15.5
t126.5 42.5v83q-52 -31 -124 -48.5t-151 -17.5q-163 0 -248 46.5t-88 146.5h649v12q0 74 -46.5 136t-130.5 98t-193 36q-108 0 -192.5 -36.5t-131 -99.5t-46.5 -139q0 -137 108 -206zM236 424q71 41 174 41q106 0 177 -41t93 -106h-539q24 65 95 106z" />
    <glyph glyph-name="igrave" unicode="&#xec;" horiz-adv-x="250" 
d="M165 587h-99l-175 170h116zM80 520h90v-520h-90v520z" />
    <glyph glyph-name="iacute" unicode="&#xed;" horiz-adv-x="250" 
d="M88 587h95l175 170h-112zM80 520h90v-520h-90v520z" />
    <glyph glyph-name="icircumflex" unicode="&#xee;" horiz-adv-x="250" 
d="M143 680h-26l-117 -93h-103l213 170h38l213 -170h-101zM170 0h-90v520h90v-520z" />
    <glyph glyph-name="idieresis" unicode="&#xef;" horiz-adv-x="250" 
d="M-50.5 715q-20.5 -17 -20.5 -42t20.5 -41.5t50.5 -16.5t50.5 16.5t20.5 41.5t-20.5 42t-50.5 17t-50.5 -17zM199.5 715q-20.5 -17 -20.5 -42t20.5 -41.5t50.5 -16.5t50.5 16.5t20.5 41.5t-20.5 42t-50.5 17t-50.5 -17zM80 520h90v-520h-90v520z" />
    <glyph glyph-name="eth" unicode="&#xf0;" horiz-adv-x="836" 
d="M88.5 113.5q48.5 -59.5 134.5 -94t195 -34.5q116 0 202.5 36.5t132.5 109.5q23 37 33 83t10 105q0 137 -80 230t-235 136l150 110h-98l-127 -93q-99 18 -223 18h-81v-61h92q75 0 141 -9l-142 -104h98l123 90q134 -30 213.5 -96t92.5 -155q-110 120 -317 120
q-106 0 -188.5 -34.5t-128.5 -94t-46 -131.5t48.5 -131.5zM168 339q36 42 101 66t149 24t149 -24t101 -66t36 -94q0 -51 -36 -92.5t-101 -65.5t-149 -24t-149 24t-101 65.5t-36 92.5q0 52 36 94z" />
    <glyph glyph-name="ntilde" unicode="&#xf1;" 
d="M266.5 667.5q15.5 19.5 39.5 19.5q18 0 33 -7.5t34 -23.5q28 -21 51.5 -32.5t61.5 -11.5q59 0 95.5 34.5t36.5 90.5h-75q0 -24 -15.5 -43.5t-39.5 -19.5q-18 0 -33 7.5t-34 23.5q-28 21 -51.5 32.5t-61.5 11.5q-59 0 -95.5 -34.5t-36.5 -90.5h75q0 24 15.5 43.5z
M279 502.5q67 32.5 159 32.5q128 0 206 -65t78 -204v-266h-90v251q0 107 -54.5 157t-161.5 50q-106 0 -176 -50t-70 -171v-237h-90v520h90v-101q42 51 109 83.5z" />
    <glyph glyph-name="ograve" unicode="&#xf2;" horiz-adv-x="836" 
d="M446 587h-99l-175 170h116zM223 498.5q-86 -36.5 -134.5 -99.5t-48.5 -139q0 -77 48.5 -140t134.5 -99t195 -36t195 36.5t134.5 99.5t48.5 139t-48.5 139t-134.5 99.5t-195 36.5t-195 -36.5zM567 432q65 -26 101 -71t36 -101t-36 -101t-101 -71t-149 -26t-149 26t-101 71
t-36 101t36 101t101 71t149 26t149 -26z" />
    <glyph glyph-name="oacute" unicode="&#xf3;" horiz-adv-x="836" 
d="M377 587h95l175 170h-112zM223 498.5q-86 -36.5 -134.5 -99.5t-48.5 -139q0 -77 48.5 -140t134.5 -99t195 -36t195 36.5t134.5 99.5t48.5 139t-48.5 139t-134.5 99.5t-195 36.5t-195 -36.5zM567 432q65 -26 101 -71t36 -101t-36 -101t-101 -71t-149 -26t-149 26t-101 71
t-36 101t36 101t101 71t149 26t149 -26z" />
    <glyph glyph-name="ocircumflex" unicode="&#xf4;" horiz-adv-x="836" 
d="M401 757h38l213 -170h-101l-117 93h-26l-117 -93h-103zM613 498.5q86 -36.5 134.5 -99.5t48.5 -139t-48.5 -139t-134.5 -99.5t-195 -36.5t-195 36t-134.5 99t-48.5 140q0 76 48.5 139t134.5 99.5t195 36.5t195 -36.5zM567 88q65 26 101 71t36 101t-36 101t-101 71
t-149 26t-149 -26t-101 -71t-36 -101t36 -101t101 -71t149 -26t149 26z" />
    <glyph glyph-name="otilde" unicode="&#xf5;" horiz-adv-x="836" 
d="M276.5 667.5q15.5 19.5 39.5 19.5q18 0 33 -7.5t34 -23.5q28 -21 51.5 -32.5t61.5 -11.5q59 0 95.5 34.5t36.5 90.5h-75q0 -24 -15.5 -43.5t-39.5 -19.5q-18 0 -33 7.5t-34 23.5q-28 21 -51.5 32.5t-61.5 11.5q-59 0 -95.5 -34.5t-36.5 -90.5h75q0 24 15.5 43.5z
M223 498.5q-86 -36.5 -134.5 -99.5t-48.5 -139q0 -77 48.5 -140t134.5 -99t195 -36t195 36.5t134.5 99.5t48.5 139t-48.5 139t-134.5 99.5t-195 36.5t-195 -36.5zM567 432q65 -26 101 -71t36 -101t-36 -101t-101 -71t-149 -26t-149 26t-101 71t-36 101t36 101t101 71t149 26
t149 -26z" />
    <glyph glyph-name="odieresis" unicode="&#xf6;" horiz-adv-x="836" 
d="M237.5 715q-20.5 -17 -20.5 -42t20.5 -41.5t50.5 -16.5t50.5 16.5t20.5 41.5t-20.5 42t-50.5 17t-50.5 -17zM487.5 715q-20.5 -17 -20.5 -42t20.5 -41.5t50.5 -16.5t50.5 16.5t20.5 41.5t-20.5 42t-50.5 17t-50.5 -17zM223 498.5q-86 -36.5 -134.5 -99.5t-48.5 -139
q0 -77 48.5 -140t134.5 -99t195 -36t195 36.5t134.5 99.5t48.5 139t-48.5 139t-134.5 99.5t-195 36.5t-195 -36.5zM567 432q65 -26 101 -71t36 -101t-36 -101t-101 -71t-149 -26t-149 26t-101 71t-36 101t36 101t101 71t149 26t149 -26z" />
    <glyph glyph-name="uni00F7" unicode="&#xf7;" horiz-adv-x="636" 
d="M267.5 585q-20.5 -17 -20.5 -42t20.5 -41.5t50.5 -16.5t50.5 16.5t20.5 41.5t-20.5 42t-50.5 17t-50.5 -17zM576 326h-516v74h516v-74zM267.5 213q-20.5 -17 -20.5 -42t20.5 -41.5t50.5 -16.5t50.5 16.5t20.5 41.5t-20.5 42t-50.5 17t-50.5 -17z" />
    <glyph glyph-name="oslash" unicode="&#xf8;" horiz-adv-x="836" 
d="M70.5 147.5q30.5 -52.5 85.5 -90.5l-96 -92h102l59 57q86 -37 197 -37q109 0 195 36.5t134.5 99.5t48.5 139q0 59 -30.5 111.5t-85.5 90.5l96 93h-102l-60 -57q-88 37 -196 37q-109 0 -195 -36.5t-134.5 -99.5t-48.5 -139q0 -60 30.5 -112.5zM168 361q36 45 101 71
t149 26q74 0 134 -20l-336 -323q-40 27 -62 64.5t-22 80.5q0 56 36 101zM682 340.5q22 -37.5 22 -80.5q0 -56 -36 -101t-101 -71t-149 -26q-74 0 -134 20l336 323q40 -27 62 -64.5z" />
    <glyph glyph-name="ugrave" unicode="&#xf9;" 
d="M437 587h-99l-175 170h116zM209.5 112q54.5 -50 161.5 -50q106 0 176 50t70 171v237h90v-520h-90v101q-42 -51 -109 -83.5t-159 -32.5q-77 0 -141.5 30t-103.5 90.5t-39 148.5v266h90v-251q0 -107 54.5 -157z" />
    <glyph glyph-name="uacute" unicode="&#xfa;" 
d="M333 587h95l175 170h-112zM209.5 112q54.5 -50 161.5 -50q106 0 176 50t70 171v237h90v-520h-90v101q-42 -51 -109 -83.5t-159 -32.5q-77 0 -141.5 30t-103.5 90.5t-39 148.5v266h90v-251q0 -107 54.5 -157z" />
    <glyph glyph-name="ucircumflex" unicode="&#xfb;" 
d="M369 757h38l213 -170h-101l-117 93h-26l-117 -93h-103zM617 101q-42 -51 -109 -83.5t-159 -32.5q-77 0 -141.5 30t-103.5 90.5t-39 148.5v266h90v-251q0 -107 54.5 -157t161.5 -50q106 0 176 50t70 171v237h90v-520h-90v101z" />
    <glyph glyph-name="udieresis" unicode="&#xfc;" 
d="M208.5 715q-20.5 -17 -20.5 -42t20.5 -41.5t50.5 -16.5t50.5 16.5t20.5 41.5t-20.5 42t-50.5 17t-50.5 -17zM458.5 715q-20.5 -17 -20.5 -42t20.5 -41.5t50.5 -16.5t50.5 16.5t20.5 41.5t-20.5 42t-50.5 17t-50.5 -17zM209.5 112q54.5 -50 161.5 -50q106 0 176 50t70 171
v237h90v-520h-90v101q-42 -51 -109 -83.5t-159 -32.5q-77 0 -141.5 30t-103.5 90.5t-39 148.5v266h90v-251q0 -107 54.5 -157z" />
    <glyph glyph-name="yacute" unicode="&#xfd;" horiz-adv-x="717" 
d="M312 587h95l175 170h-112zM391 125l236 395h90l-430 -720h-90l129 217l-326 503h107l256 -395h28z" />
    <glyph glyph-name="thorn" unicode="&#xfe;" horiz-adv-x="859" 
d="M459 535q107 0 189 -36.5t126.5 -99t44.5 -139.5q0 -71 -46 -134.5t-129.5 -102t-189.5 -38.5q-172 0 -284 96v-281h-90v920h90v-282q115 97 289 97zM191 159q36 -45 101 -71t149 -26t149 26t101 71t36 101t-36 101t-101 71t-149 26t-149 -26t-101 -71t-36 -101t36 -101z
" />
    <glyph glyph-name="ydieresis" unicode="&#xff;" horiz-adv-x="717" 
d="M192.5 715q-20.5 -17 -20.5 -42t20.5 -41.5t50.5 -16.5t50.5 16.5t20.5 41.5t-20.5 42t-50.5 17t-50.5 -17zM442.5 715q-20.5 -17 -20.5 -42t20.5 -41.5t50.5 -16.5t50.5 16.5t20.5 41.5t-20.5 42t-50.5 17t-50.5 -17zM391 125l236 395h90l-430 -720h-90l129 217
l-326 503h107l256 -395h28z" />
    <glyph glyph-name="Amacron" unicode="&#x100;" horiz-adv-x="1037" 
d="M360 817v70h320v-70h-320zM1058 0h-112l-131 209h-558l-133 -209h-103l459 720h125zM529 635l-221 -346h456l-218 346h-17z" />
    <glyph glyph-name="amacron" unicode="&#x101;" horiz-adv-x="794" 
d="M220 635v70h320v-70h-320zM115 23.5q75 -38.5 211 -38.5q113 0 188.5 30t126.5 86v-101h88v327q0 107 -96 157.5t-261 50.5q-86 0 -165 -17.5t-136 -54.5v-92q51 40 129 63.5t169 23.5q137 0 206 -29t69 -76q0 -23 -24.5 -34t-72 -15t-154.5 -8l-85 -4
q-141 -7 -204.5 -43.5t-63.5 -105.5q0 -81 75 -119.5zM600.5 148.5q-40.5 -42.5 -109.5 -64.5t-153 -22q-202 0 -202 81q0 40 46 58t143 21q15 0 22 1q133 4 199.5 11t94.5 28v-11q0 -60 -40.5 -102.5z" />
    <glyph glyph-name="Abreve" unicode="&#x102;" horiz-adv-x="1037" 
d="M645 893.5q-16 -21.5 -48 -35t-77 -13.5t-77 13.5t-48 35t-16 44.5h-75q0 -39 25 -75t74 -58t117 -22t117 22t74 58t25 75h-75q0 -23 -16 -44.5zM1058 0h-112l-131 209h-558l-133 -209h-103l459 720h125zM529 635l-221 -346h456l-218 346h-17z" />
    <glyph glyph-name="abreve" unicode="&#x103;" horiz-adv-x="794" 
d="M524 702.5q-16 -24.5 -48.5 -39.5t-77.5 -15t-77.5 15t-48.5 39.5t-16 52.5h-79q0 -44 25.5 -83.5t76 -63.5t119.5 -24t119.5 24t76 63.5t25.5 83.5h-79q0 -28 -16 -52.5zM115 23.5q75 -38.5 211 -38.5q113 0 188.5 30t126.5 86v-101h88v327q0 107 -96 157.5t-261 50.5
q-86 0 -165 -17.5t-136 -54.5v-92q51 40 129 63.5t169 23.5q137 0 206 -29t69 -76q0 -23 -24.5 -34t-72 -15t-154.5 -8l-85 -4q-141 -7 -204.5 -43.5t-63.5 -105.5q0 -81 75 -119.5zM600.5 148.5q-40.5 -42.5 -109.5 -64.5t-153 -22q-202 0 -202 81q0 40 46 58t143 21
q15 0 22 1q133 4 199.5 11t94.5 28v-11q0 -60 -40.5 -102.5z" />
    <glyph glyph-name="Aogonek" unicode="&#x104;" horiz-adv-x="1037" 
d="M959.5 -29.5q-37.5 -23.5 -37.5 -53.5q0 -23 16 -34.5t41 -11.5q38 0 63 14v-59q-25 -14 -66 -14q-57 0 -89 28t-32 69q0 33 22.5 56.5t47.5 34.5l-131 209h-558l-133 -209h-103l459 720h125l453 -720q-40 -6 -77.5 -29.5zM508 635l-221 -346h456l-218 346h-17z" />
    <glyph glyph-name="aogonek" unicode="&#x105;" horiz-adv-x="794" 
d="M115 23.5q75 -38.5 211 -38.5q113 0 189 28t126 82v-95q-28 -11 -49 -35t-21 -56q0 -44 32 -70.5t91 -26.5q41 0 66 14v65q-25 -14 -63 -14q-24 0 -37.5 11t-13.5 32q0 25 24 47.5t59 32.5v327q0 107 -96 157.5t-261 50.5q-86 0 -165 -17.5t-136 -54.5v-92
q51 40 129 63.5t169 23.5q137 0 206 -29t69 -76q0 -23 -24.5 -34t-72 -15t-154.5 -8l-85 -4q-141 -7 -204.5 -43.5t-63.5 -105.5q0 -81 75 -119.5zM182 201q46 18 143 21q15 0 22 1q133 4 199.5 11t94.5 28v-11q0 -60 -40.5 -102.5t-109.5 -64.5t-153 -22q-202 0 -202 81
q0 40 46 58z" />
    <glyph glyph-name="Cacute" unicode="&#x106;" horiz-adv-x="962" 
d="M545 790h86l149 140h-102zM772 92.5q-84 -25.5 -184 -25.5q-138 0 -238.5 39.5t-152.5 106.5t-52 147t52 146.5t152.5 106t238.5 39.5q101 0 181.5 -26.5t133.5 -69.5v102q-58 37 -138.5 56.5t-176.5 19.5q-164 0 -286 -50.5t-187 -136t-65 -187.5q0 -109 64.5 -194.5
t186 -133.5t287.5 -48q99 0 182.5 19.5t141.5 58.5v103q-56 -47 -140 -72.5z" />
    <glyph glyph-name="cacute" unicode="&#x107;" horiz-adv-x="708" 
d="M368 587h95l175 170h-112zM570 76.5q-58 -14.5 -125 -14.5q-94 0 -165 25t-109.5 70t-38.5 103t38.5 103t109.5 70t165 25q137 0 218 -59v89q-89 47 -218 47q-118 0 -210 -36t-143.5 -99t-51.5 -140q0 -82 50.5 -144.5t142.5 -96.5t212 -34q63 0 121 11.5t102 34.5v90
q-40 -30 -98 -44.5z" />
    <glyph glyph-name="Ccircumflex" unicode="&#x108;" horiz-adv-x="962" 
d="M540 930h45l191 -155h-106l-96 78h-24l-96 -78h-105zM772 92.5q84 25.5 140 72.5v-103q-58 -39 -141.5 -58.5t-182.5 -19.5q-166 0 -287.5 48t-186 133.5t-64.5 194.5q0 102 65 187.5t187 136t286 50.5q96 0 176.5 -19.5t138.5 -56.5v-102q-53 43 -133.5 69.5
t-181.5 26.5q-138 0 -238.5 -39.5t-152.5 -106t-52 -146.5t52 -147t152.5 -106.5t238.5 -39.5q100 0 184 25.5z" />
    <glyph glyph-name="ccircumflex" unicode="&#x109;" horiz-adv-x="708" 
d="M396 757h38l213 -170h-101l-117 93h-26l-117 -93h-103zM570 76.5q58 14.5 98 44.5v-90q-44 -23 -102 -34.5t-121 -11.5q-120 0 -212 34t-142.5 96.5t-50.5 144.5q0 77 51.5 140t143.5 99t210 36q129 0 218 -47v-89q-81 59 -218 59q-94 0 -165 -25t-109.5 -70t-38.5 -103
t38.5 -103t109.5 -70t165 -25q67 0 125 14.5z" />
    <glyph glyph-name="Cdotaccent" unicode="&#x10a;" horiz-adv-x="962" 
d="M518 894q-21 -17 -21 -42t21 -41.5t54 -16.5t54 16.5t21 41.5t-21 42t-54 17t-54 -17zM772 92.5q-84 -25.5 -184 -25.5q-138 0 -238.5 39.5t-152.5 106.5t-52 147t52 146.5t152.5 106t238.5 39.5q101 0 181.5 -26.5t133.5 -69.5v102q-58 37 -138.5 56.5t-176.5 19.5
q-164 0 -286 -50.5t-187 -136t-65 -187.5q0 -109 64.5 -194.5t186 -133.5t287.5 -48q99 0 182.5 19.5t141.5 58.5v103q-56 -47 -140 -72.5z" />
    <glyph glyph-name="cdotaccent" unicode="&#x10b;" horiz-adv-x="708" 
d="M376 715q-21 -17 -21 -42t21 -41.5t54 -16.5t54 16.5t21 41.5t-21 42t-54 17t-54 -17zM570 76.5q-58 -14.5 -125 -14.5q-94 0 -165 25t-109.5 70t-38.5 103t38.5 103t109.5 70t165 25q137 0 218 -59v89q-89 47 -218 47q-118 0 -210 -36t-143.5 -99t-51.5 -140
q0 -82 50.5 -144.5t142.5 -96.5t212 -34q63 0 121 11.5t102 34.5v90q-40 -30 -98 -44.5z" />
    <glyph glyph-name="Ccaron" unicode="&#x10c;" horiz-adv-x="962" 
d="M545 852h24l96 78h105l-191 -155h-49l-191 155h110zM772 92.5q84 25.5 140 72.5v-103q-58 -39 -141.5 -58.5t-182.5 -19.5q-166 0 -287.5 48t-186 133.5t-64.5 194.5q0 102 65 187.5t187 136t286 50.5q96 0 176.5 -19.5t138.5 -56.5v-102q-53 43 -133.5 69.5t-181.5 26.5
q-138 0 -238.5 -39.5t-152.5 -106t-52 -146.5t52 -147t152.5 -106.5t238.5 -39.5q100 0 184 25.5z" />
    <glyph glyph-name="ccaron" unicode="&#x10d;" horiz-adv-x="708" 
d="M418 664h26l117 93h99l-213 -170h-37l-213 170h104zM570 76.5q58 14.5 98 44.5v-90q-44 -23 -102 -34.5t-121 -11.5q-120 0 -212 34t-142.5 96.5t-50.5 144.5q0 77 51.5 140t143.5 99t210 36q129 0 218 -47v-89q-81 59 -218 59q-94 0 -165 -25t-109.5 -70t-38.5 -103
t38.5 -103t109.5 -70t165 -25q67 0 125 14.5z" />
    <glyph glyph-name="Dcaron" unicode="&#x10e;" horiz-adv-x="1039" 
d="M442 852h24l96 78h105l-191 -155h-49l-191 155h110zM858.5 623.5q130.5 -96.5 130.5 -263.5q0 -360 -578 -360h-301v720h301q317 0 447.5 -96.5zM771.5 149.5q119.5 69.5 119.5 210.5t-120 210.5t-364 69.5h-202v-560h202q245 0 364.5 69.5z" />
    <glyph glyph-name="dcaron" unicode="&#x10f;" horiz-adv-x="859" 
d="M563 14.5q-73 -29.5 -163 -29.5q-107 0 -189 36.5t-126.5 99t-44.5 139.5q0 71 46 134.5t129.5 102t189.5 38.5q90 0 161 -29t123 -77v291h90v-720h-90v92q-53 -48 -126 -77.5zM939 720h99l-140 -198h-76zM668 361q-36 45 -101 71t-149 26t-149 -26t-101 -71t-36 -101
t36 -101t101 -71t149 -26t149 26t101 71t36 101t-36 101z" />
    <glyph glyph-name="Dcroat" unicode="&#x110;" horiz-adv-x="1054" 
d="M426 720q317 0 447.5 -96.5t130.5 -263.5q0 -360 -578 -360h-301v331h-100v77h100v312h301zM786.5 149.5q119.5 69.5 119.5 210.5t-120 210.5t-364 69.5h-202v-232h255v-77h-255v-251h202q245 0 364.5 69.5z" />
    <glyph glyph-name="dcroat" unicode="&#x111;" horiz-adv-x="864" 
d="M86 394.5q46 63.5 129.5 102t189.5 38.5q90 0 161 -29t123 -77v161h-185v70h185v60h90v-60h75v-70h-75v-590h-90v92q-53 -48 -126 -77.5t-163 -29.5q-107 0 -189 36.5t-126.5 99t-44.5 139.5q0 71 46 134.5zM168 159q36 -45 101 -71t149 -26t149 26t101 71t36 101
t-36 101t-101 71t-149 26t-149 -26t-101 -71t-36 -101t36 -101z" />
    <glyph glyph-name="Emacron" unicode="&#x112;" horiz-adv-x="935" 
d="M325 817v70h320v-70h-320zM865 640h-660v-219h570v-80h-570v-261h660v-80h-755v720h755v-80z" />
    <glyph glyph-name="emacron" unicode="&#x113;" horiz-adv-x="820" 
d="M254 635v70h320v-70h-320zM148 54q108 -69 319 -69q75 0 148.5 15.5t126.5 42.5v83q-52 -31 -124 -48.5t-151 -17.5q-163 0 -248 46.5t-88 146.5h649v12q0 74 -46.5 136t-130.5 98t-193 36q-108 0 -192.5 -36.5t-131 -99.5t-46.5 -139q0 -137 108 -206zM236 424
q71 41 174 41q106 0 177 -41t93 -106h-539q24 65 95 106z" />
    <glyph glyph-name="Ebreve" unicode="&#x114;" horiz-adv-x="935" 
d="M610 893.5q-16 -21.5 -48 -35t-77 -13.5t-77 13.5t-48 35t-16 44.5h-75q0 -39 25 -75t74 -58t117 -22t117 22t74 58t25 75h-75q0 -23 -16 -44.5zM865 640h-660v-219h570v-80h-570v-261h660v-80h-755v720h755v-80z" />
    <glyph glyph-name="ebreve" unicode="&#x115;" horiz-adv-x="820" 
d="M546 702.5q-16 -24.5 -48.5 -39.5t-77.5 -15t-77.5 15t-48.5 39.5t-16 52.5h-79q0 -44 25.5 -83.5t76 -63.5t119.5 -24t119.5 24t76 63.5t25.5 83.5h-79q0 -28 -16 -52.5zM148 54q108 -69 319 -69q75 0 148.5 15.5t126.5 42.5v83q-52 -31 -124 -48.5t-151 -17.5
q-163 0 -248 46.5t-88 146.5h649v12q0 74 -46.5 136t-130.5 98t-193 36q-108 0 -192.5 -36.5t-131 -99.5t-46.5 -139q0 -137 108 -206zM236 424q71 41 174 41q106 0 177 -41t93 -106h-539q24 65 95 106z" />
    <glyph glyph-name="Edotaccent" unicode="&#x116;" horiz-adv-x="935" 
d="M442 894q-21 -17 -21 -42t21 -41.5t54 -16.5t54 16.5t21 41.5t-21 42t-54 17t-54 -17zM865 640h-660v-219h570v-80h-570v-261h660v-80h-755v720h755v-80z" />
    <glyph glyph-name="edotaccent" unicode="&#x117;" horiz-adv-x="820" 
d="M363 715q-21 -17 -21 -42t21 -41.5t54 -16.5t54 16.5t21 41.5t-21 42t-54 17t-54 -17zM148 54q108 -69 319 -69q75 0 148.5 15.5t126.5 42.5v83q-52 -31 -124 -48.5t-151 -17.5q-163 0 -248 46.5t-88 146.5h649v12q0 74 -46.5 136t-130.5 98t-193 36q-108 0 -192.5 -36.5
t-131 -99.5t-46.5 -139q0 -137 108 -206zM236 424q71 41 174 41q106 0 177 -41t93 -106h-539q24 65 95 106z" />
    <glyph glyph-name="Eogonek" unicode="&#x118;" horiz-adv-x="935" 
d="M205 640v-219h570v-80h-570v-261h660v-80q-32 -11 -58.5 -33.5t-26.5 -46.5q0 -21 13.5 -32t37.5 -11q38 0 63 14v-65q-25 -14 -66 -14q-57 0 -90 28.5t-33 68.5q0 31 23 56t47 35h-665v720h755v-80h-660z" />
    <glyph glyph-name="eogonek" unicode="&#x119;" horiz-adv-x="820" 
d="M148 54q108 -69 319 -69q42 0 87 8q-23 -13 -39.5 -36.5t-16.5 -56.5q0 -42 31.5 -65t91.5 -23q41 0 66 14v65q-25 -14 -63 -14q-24 0 -38 11t-14 32q0 26 22 46.5t52.5 35t95.5 41.5v83q-52 -31 -124 -48.5t-151 -17.5q-163 0 -248 46.5t-88 146.5h649v12
q0 74 -46.5 136t-130.5 98t-193 36q-108 0 -192.5 -36.5t-131 -99.5t-46.5 -139q0 -137 108 -206zM236 424q71 41 174 41q106 0 177 -41t93 -106h-539q24 65 95 106z" />
    <glyph glyph-name="Ecaron" unicode="&#x11a;" horiz-adv-x="935" 
d="M459 852h24l96 78h105l-191 -155h-49l-191 155h110zM775 421v-80h-570v-261h660v-80h-755v720h755v-80h-660v-219h570z" />
    <glyph glyph-name="ecaron" unicode="&#x11b;" horiz-adv-x="820" 
d="M413 664h26l117 93h99l-213 -170h-37l-213 170h104zM219 106.5q85 -46.5 248 -46.5q79 0 151 17.5t124 48.5v-83q-53 -27 -126.5 -42.5t-148.5 -15.5q-211 0 -319 69t-108 206q0 76 46.5 139t131 99.5t192.5 36.5q109 0 193 -36t130.5 -98t46.5 -136v-12h-649
q3 -100 88 -146.5zM587 424q-71 41 -177 41q-103 0 -174 -41t-95 -106h539q-22 65 -93 106z" />
    <glyph glyph-name="Gcircumflex" unicode="&#x11c;" horiz-adv-x="1076" 
d="M592 930h45l191 -155h-106l-96 78h-24l-96 -78h-105zM630 -15q-161 0 -293.5 48t-209.5 133.5t-77 193.5q0 106 78.5 192t211.5 134.5t290 48.5q105 0 203 -20t159 -55v-102q-50 41 -146 68t-216 27q-131 0 -242 -38t-177 -105t-66 -150t66 -149.5t177 -104.5t242 -38
q176 0 281 43v197h-516v80h606v-328q-129 -75 -371 -75z" />
    <glyph glyph-name="gcircumflex" unicode="&#x11d;" horiz-adv-x="859" 
d="M410 757h38l213 -170h-101l-117 93h-26l-117 -93h-103zM731.5 -85q-47.5 -62 -133.5 -93.5t-199 -31.5q-91 0 -170.5 20.5t-127.5 51.5v91q56 -40 132.5 -63t171.5 -23q133 0 208.5 47.5t75.5 135.5v41q-113 -106 -284 -106q-106 0 -189.5 38.5t-129.5 102t-46 134.5
q0 77 44.5 139.5t126.5 99t189 36.5q177 0 289 -105v90h90v-456q0 -87 -47.5 -149zM567 88q65 26 101 71t36 101t-36 101t-101 71t-149 26t-149 -26t-101 -71t-36 -101t36 -101t101 -71t149 -26t149 26z" />
    <glyph glyph-name="Gbreve" unicode="&#x11e;" horiz-adv-x="1076" 
d="M754 893.5q-16 -21.5 -48 -35t-77 -13.5t-77 13.5t-48 35t-16 44.5h-75q0 -39 25 -75t74 -58t117 -22t117 22t74 58t25 75h-75q0 -23 -16 -44.5zM128.5 552q78.5 86 211.5 134.5t290 48.5q105 0 203 -20t159 -55v-102q-50 41 -146 68t-216 27q-131 0 -242 -38t-177 -105
t-66 -150t66 -149.5t177 -104.5t242 -38q176 0 281 43v197h-516v80h606v-328q-129 -75 -371 -75q-161 0 -293.5 48t-209.5 133.5t-77 193.5q0 106 78.5 192z" />
    <glyph glyph-name="gbreve" unicode="&#x11f;" horiz-adv-x="859" 
d="M548 702.5q-16 -24.5 -48.5 -39.5t-77.5 -15t-77.5 15t-48.5 39.5t-16 52.5h-79q0 -44 25.5 -83.5t76 -63.5t119.5 -24t119.5 24t76 63.5t25.5 83.5h-79q0 -28 -16 -52.5zM86 125.5q46 -63.5 129.5 -102t189.5 -38.5q171 0 284 106v-41q0 -88 -75.5 -135.5t-208.5 -47.5
q-95 0 -171.5 23t-132.5 63v-91q48 -31 127.5 -51.5t170.5 -20.5q113 0 199 31.5t133.5 93.5t47.5 149v456h-90v-90q-112 105 -289 105q-107 0 -189 -36.5t-126.5 -99t-44.5 -139.5q0 -71 46 -134.5zM168 361q36 45 101 71t149 26t149 -26t101 -71t36 -101t-36 -101
t-101 -71t-149 -26t-149 26t-101 71t-36 101t36 101z" />
    <glyph glyph-name="Gdotaccent" unicode="&#x120;" horiz-adv-x="1076" 
d="M566 894q-21 -17 -21 -42t21 -41.5t54 -16.5t54 16.5t21 41.5t-21 42t-54 17t-54 -17zM128.5 552q78.5 86 211.5 134.5t290 48.5q105 0 203 -20t159 -55v-102q-50 41 -146 68t-216 27q-131 0 -242 -38t-177 -105t-66 -150t66 -149.5t177 -104.5t242 -38q176 0 281 43v197
h-516v80h606v-328q-129 -75 -371 -75q-161 0 -293.5 48t-209.5 133.5t-77 193.5q0 106 78.5 192z" />
    <glyph glyph-name="gdotaccent" unicode="&#x121;" horiz-adv-x="859" 
d="M373 715q-21 -17 -21 -42t21 -41.5t54 -16.5t54 16.5t21 41.5t-21 42t-54 17t-54 -17zM86 125.5q46 -63.5 129.5 -102t189.5 -38.5q171 0 284 106v-41q0 -88 -75.5 -135.5t-208.5 -47.5q-95 0 -171.5 23t-132.5 63v-91q48 -31 127.5 -51.5t170.5 -20.5q113 0 199 31.5
t133.5 93.5t47.5 149v456h-90v-90q-112 105 -289 105q-107 0 -189 -36.5t-126.5 -99t-44.5 -139.5q0 -71 46 -134.5zM168 361q36 45 101 71t149 26t149 -26t101 -71t36 -101t-36 -101t-101 -71t-149 -26t-149 26t-101 71t-36 101t36 101z" />
    <glyph glyph-name="uni0122" unicode="&#x122;" horiz-adv-x="1076" 
d="M128.5 552q78.5 86 211.5 134.5t290 48.5q105 0 203 -20t159 -55v-102q-50 41 -146 68t-216 27q-131 0 -242 -38t-177 -105t-66 -150t66 -149.5t177 -104.5t242 -38q176 0 281 43v197h-516v80h606v-328q-129 -75 -371 -75q-161 0 -293.5 48t-209.5 133.5t-77 193.5
q0 106 78.5 192zM577 -57h99l-140 -198h-76z" />
    <glyph glyph-name="uni0123" unicode="&#x123;" horiz-adv-x="859" 
d="M466 587h-99l140 198h76zM86 125.5q46 -63.5 129.5 -102t189.5 -38.5q171 0 284 106v-41q0 -88 -75.5 -135.5t-208.5 -47.5q-95 0 -171.5 23t-132.5 63v-91q48 -31 127.5 -51.5t170.5 -20.5q113 0 199 31.5t133.5 93.5t47.5 149v456h-90v-90q-112 105 -289 105
q-107 0 -189 -36.5t-126.5 -99t-44.5 -139.5q0 -71 46 -134.5zM168 361q36 45 101 71t149 26t149 -26t101 -71t36 -101t-36 -101t-101 -71t-149 -26t-149 26t-101 71t-36 101t36 101z" />
    <glyph glyph-name="Hcircumflex" unicode="&#x124;" horiz-adv-x="1045" 
d="M511 930h45l191 -155h-106l-96 78h-24l-96 -78h-105zM840 0v341h-635v-341h-95v720h95v-299h635v299h95v-720h-95z" />
    <glyph glyph-name="hcircumflex" unicode="&#x125;" 
d="M362 930h45l191 -155h-106l-96 78h-24l-96 -78h-105zM644 470q78 -65 78 -204v-266h-90v251q0 107 -54.5 157t-161.5 50q-106 0 -176 -50t-70 -171v-237h-90v720h90v-301q42 51 109 83.5t159 32.5q128 0 206 -65z" />
    <glyph glyph-name="Hbar" unicode="&#x126;" horiz-adv-x="1105" 
d="M140 720h95v-102h635v102h95v-102h120v-75h-120v-543h-95v341h-635v-341h-95v543h-120v75h120v102zM235 543v-122h635v122h-635z" />
    <glyph glyph-name="hbar" unicode="&#x127;" 
d="M170 720v-60h185v-70h-185v-171q42 51 109 83.5t159 32.5q128 0 206 -65t78 -204v-266h-90v251q0 107 -54.5 157t-161.5 50q-106 0 -176 -50t-70 -171v-237h-90v590h-70v70h70v60h90z" />
    <glyph glyph-name="Itilde" unicode="&#x128;" horiz-adv-x="315" 
d="M26.5 846.5q15.5 19.5 39.5 19.5q18 0 33 -7.5t34 -23.5q28 -21 51.5 -32.5t61.5 -11.5q59 0 95.5 34.5t36.5 90.5h-75q0 -24 -15.5 -43.5t-39.5 -19.5q-18 0 -33 7.5t-34 23.5q-28 21 -51.5 32.5t-61.5 11.5q-59 0 -95.5 -34.5t-36.5 -90.5h75q0 24 15.5 43.5zM110 0
v720h95v-720h-95z" />
    <glyph glyph-name="itilde" unicode="&#x129;" horiz-adv-x="250" 
d="M-5.5 667.5q15.5 19.5 39.5 19.5q18 0 33 -7.5t34 -23.5q28 -21 51.5 -32.5t61.5 -11.5q59 0 95.5 34.5t36.5 90.5h-75q0 -24 -15.5 -43.5t-39.5 -19.5q-18 0 -33 7.5t-34 23.5q-28 21 -51.5 32.5t-61.5 11.5q-59 0 -95.5 -34.5t-36.5 -90.5h75q0 24 15.5 43.5zM80 520
h90v-520h-90v520z" />
    <glyph glyph-name="Imacron" unicode="&#x12a;" horiz-adv-x="315" 
d="M-2 817v70h320v-70h-320zM110 0v720h95v-720h-95z" />
    <glyph glyph-name="imacron" unicode="&#x12b;" horiz-adv-x="250" 
d="M-35 635v70h320v-70h-320zM80 520h90v-520h-90v520z" />
    <glyph glyph-name="Ibreve" unicode="&#x12c;" horiz-adv-x="315" 
d="M282 893.5q-16 -21.5 -48 -35t-77 -13.5t-77 13.5t-48 35t-16 44.5h-75q0 -39 25 -75t74 -58t117 -22t117 22t74 58t25 75h-75q0 -23 -16 -44.5zM110 0v720h95v-720h-95z" />
    <glyph glyph-name="ibreve" unicode="&#x12d;" horiz-adv-x="250" 
d="M251 702.5q-16 -24.5 -48.5 -39.5t-77.5 -15t-77.5 15t-48.5 39.5t-16 52.5h-79q0 -44 25.5 -83.5t76 -63.5t119.5 -24t119.5 24t76 63.5t25.5 83.5h-79q0 -28 -16 -52.5zM80 520h90v-520h-90v520z" />
    <glyph glyph-name="Iogonek" unicode="&#x12e;" horiz-adv-x="315" 
d="M64.5 -34q21.5 24 45.5 34v720h95v-720q-40 -10 -67.5 -31.5t-27.5 -51.5q0 -23 16 -34.5t41 -11.5q38 0 63 14v-59q-25 -14 -66 -14q-57 0 -89 28t-32 69q0 33 21.5 57z" />
    <glyph glyph-name="iogonek" unicode="&#x12f;" horiz-adv-x="250" 
d="M71 715q-21 -17 -21 -42t21 -41.5t54 -16.5t54 16.5t21 41.5t-21 42t-54 17t-54 -17zM29.5 -39.5q19.5 22.5 50.5 39.5v520h90v-520q-37 -13 -61 -34t-24 -46q0 -21 13.5 -32t37.5 -11q38 0 63 14v-65q-25 -14 -66 -14q-62 0 -92.5 26t-30.5 63t19.5 59.5z" />
    <glyph glyph-name="Idotaccent" unicode="&#x130;" horiz-adv-x="315" 
d="M103 894q-21 -17 -21 -42t21 -41.5t54 -16.5t54 16.5t21 41.5t-21 42t-54 17t-54 -17zM110 0v720h95v-720h-95z" />
    <glyph glyph-name="dotlessi" unicode="&#x131;" horiz-adv-x="250" 
d="M80 520h90v-520h-90v520z" />
    <glyph glyph-name="IJ" unicode="&#x132;" horiz-adv-x="1026" 
d="M110 0v720h95v-720h-95zM447 7.5q70 -22.5 151 -22.5q91 0 169 30t128.5 103.5t50.5 194.5v407h-95v-388q0 -154 -72.5 -211.5t-185.5 -57.5q-77 0 -145.5 30t-107.5 71v-102q37 -32 107 -54.5z" />
    <glyph glyph-name="ij" unicode="&#x133;" horiz-adv-x="500" 
d="M71 715q-21 -17 -21 -42t21 -41.5t54 -16.5t54 16.5t21 41.5t-21 42t-54 17t-54 -17zM321 715q-21 -17 -21 -42t21 -41.5t54 -16.5t54 16.5t21 41.5t-21 42t-54 17t-54 -17zM80 520h90v-520h-90v520zM363.5 -154.5q-56.5 -55.5 -152.5 -55.5q-39 0 -71 9.5t-54 25.5v85
q24 -20 54.5 -31.5t59.5 -11.5q130 0 130 129v524h90v-524q0 -95 -56.5 -150.5z" />
    <glyph glyph-name="Jcircumflex" unicode="&#x134;" horiz-adv-x="711" 
d="M598 853h-24l-96 -78h-105l191 155h45l191 -155h-106zM580.5 118.5q-50.5 -73.5 -128.5 -103.5t-169 -30q-81 0 -151 22.5t-107 54.5v102q39 -41 107.5 -71t145.5 -30q113 0 185.5 57.5t72.5 211.5v388h95v-407q0 -121 -50.5 -194.5z" />
    <glyph glyph-name="jcircumflex" unicode="&#x135;" horiz-adv-x="250" 
d="M143 680h-26l-117 -93h-103l213 170h38l213 -170h-101zM113.5 -154.5q-56.5 -55.5 -152.5 -55.5q-39 0 -71 9.5t-54 25.5v85q24 -20 54.5 -31.5t59.5 -11.5q130 0 130 129v524h90v-524q0 -95 -56.5 -150.5z" />
    <glyph glyph-name="uni0136" unicode="&#x136;" horiz-adv-x="973" 
d="M205 424h20l689 311v-83l-610 -274v-16l669 -362h-178l-571 309h-19v-309h-95v720h95v-296zM423 -57h99l-140 -198h-76z" />
    <glyph glyph-name="uni0137" unicode="&#x137;" horiz-adv-x="730" 
d="M170 320h22l468 215v-77l-391 -180v-19l461 -259h-158l-379 213h-23v-213h-90v720h90v-400zM347 -57h99l-140 -198h-76z" />
    <glyph glyph-name="Lacute" unicode="&#x139;" horiz-adv-x="810" 
d="M130 790h86l149 140h-102zM205 80h585v-80h-680v720h95v-640z" />
    <glyph glyph-name="lacute" unicode="&#x13a;" horiz-adv-x="250" 
d="M86 790h86l149 140h-102zM80 720h90v-720h-90v720z" />
    <glyph glyph-name="uni013B" unicode="&#x13b;" horiz-adv-x="810" 
d="M205 80h585v-80h-680v720h95v-640zM436 -57h99l-140 -198h-76z" />
    <glyph glyph-name="uni013C" unicode="&#x13c;" horiz-adv-x="250" 
d="M80 720h90v-720h-90v720zM63 -57h99l-140 -198h-76z" />
    <glyph glyph-name="Lcaron" unicode="&#x13d;" horiz-adv-x="810" 
d="M205 80h585v-80h-680v720h95v-640zM629 718h99l-140 -198h-76z" />
    <glyph glyph-name="lcaron" unicode="&#x13e;" horiz-adv-x="250" 
d="M80 720h90v-720h-90v720zM330 720h99l-140 -198h-76z" />
    <glyph glyph-name="Ldot" unicode="&#x13f;" horiz-adv-x="810" 
d="M205 80h585v-80h-680v720h95v-640zM512.5 456q-20.5 -17 -20.5 -42t20.5 -41.5t50.5 -16.5t50.5 16.5t20.5 41.5t-20.5 42t-50.5 17t-50.5 -17z" />
    <glyph glyph-name="ldot" unicode="&#x140;" horiz-adv-x="392" 
d="M80 720h90v-720h-90v720zM270.5 322q-20.5 -17 -20.5 -42t20.5 -41.5t50.5 -16.5t50.5 16.5t20.5 41.5t-20.5 42t-50.5 17t-50.5 -17z" />
    <glyph glyph-name="Lslash" unicode="&#x141;" horiz-adv-x="850" 
d="M150 720h95v-321l251 121v-81l-251 -121v-238h585v-80h-680v272l-140 -67v81l140 67v367z" />
    <glyph glyph-name="lslash" unicode="&#x142;" horiz-adv-x="310" 
d="M110 720h90v-290l100 71v-84l-100 -71v-346h-90v282l-100 -71v84l100 71v354z" />
    <glyph glyph-name="Nacute" unicode="&#x143;" horiz-adv-x="1055" 
d="M496 790h86l149 140h-102zM827 90h23v630h95v-720h-154l-563 629h-23v-629h-95v720h160z" />
    <glyph glyph-name="nacute" unicode="&#x144;" 
d="M359 587h95l175 170h-112zM279 502.5q67 32.5 159 32.5q128 0 206 -65t78 -204v-266h-90v251q0 107 -54.5 157t-161.5 50q-106 0 -176 -50t-70 -171v-237h-90v520h90v-101q42 51 109 83.5z" />
    <glyph glyph-name="uni0145" unicode="&#x145;" horiz-adv-x="1055" 
d="M827 90h23v630h95v-720h-154l-563 629h-23v-629h-95v720h160zM474 -57h99l-140 -198h-76z" />
    <glyph glyph-name="uni0146" unicode="&#x146;" 
d="M279 502.5q67 32.5 159 32.5q128 0 206 -65t78 -204v-266h-90v251q0 107 -54.5 157t-161.5 50q-106 0 -176 -50t-70 -171v-237h-90v520h90v-101q42 51 109 83.5zM385 -57h99l-140 -198h-76z" />
    <glyph glyph-name="Ncaron" unicode="&#x147;" horiz-adv-x="1055" 
d="M545 852h24l96 78h105l-191 -155h-49l-191 155h110zM791 0l-563 629h-23v-629h-95v720h160l557 -630h23v630h95v-720h-154z" />
    <glyph glyph-name="ncaron" unicode="&#x148;" 
d="M401 664h26l117 93h99l-213 -170h-37l-213 170h104zM644 470q78 -65 78 -204v-266h-90v251q0 107 -54.5 157t-161.5 50q-106 0 -176 -50t-70 -171v-237h-90v520h90v-101q42 51 109 83.5t159 32.5q128 0 206 -65z" />
    <glyph glyph-name="napostrophe" unicode="&#x149;" 
d="M88 718h99l-140 -198h-76zM279 502.5q67 32.5 159 32.5q128 0 206 -65t78 -204v-266h-90v251q0 107 -54.5 157t-161.5 50q-106 0 -176 -50t-70 -171v-237h-90v520h90v-101q42 51 109 83.5z" />
    <glyph glyph-name="Eng" unicode="&#x14a;" horiz-adv-x="997" 
d="M792 720h95v-724q0 -95 -58.5 -150.5t-155.5 -55.5q-39 0 -71 9.5t-54 25.5v85q24 -20 54.5 -31.5t59.5 -11.5q130 0 130 129v4l-571 635h-16v-635h-95v720h159l523 -588v588z" />
    <glyph glyph-name="eng" unicode="&#x14b;" 
d="M282 507.5q67 27.5 156 27.5q128 0 206 -65t78 -204v-270q0 -95 -56.5 -150.5t-152.5 -55.5q-39 0 -71 9.5t-54 25.5v85q24 -20 54.5 -31.5t59.5 -11.5q130 0 130 129v255q0 107 -54.5 157t-161.5 50q-106 0 -176 -50t-70 -171v-237h-90v520h90v-84q45 44 112 71.5z" />
    <glyph glyph-name="Omacron" unicode="&#x14c;" horiz-adv-x="1096" 
d="M386 817v70h320v-70h-320zM289.5 685.5q-113.5 -49.5 -176.5 -135t-63 -190.5q0 -109 63 -194t176 -133t259 -48t259 48t176 133t63 194q0 105 -63 190.5t-176.5 135t-258.5 49.5t-258.5 -49.5zM757 613.5q92 -39.5 143 -106.5t51 -147q0 -79 -51 -146.5t-143 -107
t-209 -39.5t-209 39.5t-143 107t-51 146.5q0 80 51 147t143 106.5t209 39.5t209 -39.5z" />
    <glyph glyph-name="omacron" unicode="&#x14d;" horiz-adv-x="836" 
d="M254 635v70h320v-70h-320zM223 498.5q-86 -36.5 -134.5 -99.5t-48.5 -139q0 -77 48.5 -140t134.5 -99t195 -36t195 36.5t134.5 99.5t48.5 139t-48.5 139t-134.5 99.5t-195 36.5t-195 -36.5zM567 432q65 -26 101 -71t36 -101t-36 -101t-101 -71t-149 -26t-149 26t-101 71
t-36 101t36 101t101 71t149 26t149 -26z" />
    <glyph glyph-name="Obreve" unicode="&#x14e;" horiz-adv-x="1096" 
d="M673 893.5q-16 -21.5 -48 -35t-77 -13.5t-77 13.5t-48 35t-16 44.5h-75q0 -39 25 -75t74 -58t117 -22t117 22t74 58t25 75h-75q0 -23 -16 -44.5zM289.5 685.5q-113.5 -49.5 -176.5 -135t-63 -190.5q0 -109 63 -194t176 -133t259 -48t259 48t176 133t63 194
q0 105 -63 190.5t-176.5 135t-258.5 49.5t-258.5 -49.5zM757 613.5q92 -39.5 143 -106.5t51 -147q0 -79 -51 -146.5t-143 -107t-209 -39.5t-209 39.5t-143 107t-51 146.5q0 80 51 147t143 106.5t209 39.5t209 -39.5z" />
    <glyph glyph-name="obreve" unicode="&#x14f;" horiz-adv-x="836" 
d="M540 702.5q-16 -24.5 -48.5 -39.5t-77.5 -15t-77.5 15t-48.5 39.5t-16 52.5h-79q0 -44 25.5 -83.5t76 -63.5t119.5 -24t119.5 24t76 63.5t25.5 83.5h-79q0 -28 -16 -52.5zM223 498.5q-86 -36.5 -134.5 -99.5t-48.5 -139q0 -77 48.5 -140t134.5 -99t195 -36t195 36.5
t134.5 99.5t48.5 139t-48.5 139t-134.5 99.5t-195 36.5t-195 -36.5zM567 432q65 -26 101 -71t36 -101t-36 -101t-101 -71t-149 -26t-149 26t-101 71t-36 101t36 101t101 71t149 26t149 -26z" />
    <glyph glyph-name="Ohungarumlaut" unicode="&#x150;" horiz-adv-x="1096" 
d="M405 790h94l149 140h-110zM593 790h94l149 140h-110zM289.5 685.5q-113.5 -49.5 -176.5 -135t-63 -190.5q0 -109 63 -194t176 -133t259 -48t259 48t176 133t63 194q0 105 -63 190.5t-176.5 135t-258.5 49.5t-258.5 -49.5zM757 613.5q92 -39.5 143 -106.5t51 -147
q0 -79 -51 -146.5t-143 -107t-209 -39.5t-209 39.5t-143 107t-51 146.5q0 80 51 147t143 106.5t209 39.5t209 -39.5z" />
    <glyph glyph-name="ohungarumlaut" unicode="&#x151;" horiz-adv-x="836" 
d="M289 587h88l175 170h-105zM466 587h88l175 170h-105zM223 498.5q-86 -36.5 -134.5 -99.5t-48.5 -139q0 -77 48.5 -140t134.5 -99t195 -36t195 36.5t134.5 99.5t48.5 139t-48.5 139t-134.5 99.5t-195 36.5t-195 -36.5zM567 432q65 -26 101 -71t36 -101t-36 -101t-101 -71
t-149 -26t-149 26t-101 71t-36 101t36 101t101 71t149 26t149 -26z" />
    <glyph glyph-name="OE" unicode="&#x152;" horiz-adv-x="1575" 
d="M107 550q57 86 159.5 135.5t231.5 49.5q111 0 201 -38.5t151 -104.5v128h655v-80h-560v-219h470v-80h-470v-261h560v-80h-655v130q-61 -66 -151 -105.5t-201 -39.5q-130 0 -232 48t-159 133.5t-57 193.5q0 104 57 190zM189 213.5q45 -67.5 126 -107t182 -39.5t182 39.5
t126 107t45 146.5q0 80 -45 147t-125.5 106.5t-182.5 39.5t-182.5 -39.5t-125.5 -106.5t-45 -147q0 -79 45 -146.5z" />
    <glyph glyph-name="oe" unicode="&#x153;" horiz-adv-x="1390" 
d="M86 120q46 -63 128.5 -99t186.5 -36q103 0 184.5 36t127.5 97q45 -64 135 -98.5t219 -34.5q64 0 127.5 15t117.5 43v83q-111 -66 -245 -66q-147 0 -223.5 49t-81.5 136v8h588v12q0 74 -43 136t-120 98t-177 36q-98 0 -175.5 -36t-120.5 -98q-46 62 -128 98t-185 36
q-104 0 -186.5 -36.5t-128.5 -99.5t-46 -139q0 -77 46 -140zM855.5 424q63.5 41 154.5 41q95 0 158.5 -41t83.5 -106h-482q22 65 85.5 106zM166 361q34 45 95 71t140 26t140 -26t95 -71t34 -101t-34 -101t-95 -71t-140 -26t-140 26t-95 71t-34 101t34 101z" />
    <glyph glyph-name="Racute" unicode="&#x154;" horiz-adv-x="974" 
d="M429 790h86l149 140h-102zM762 688.5q75 -31.5 103.5 -78t28.5 -96.5t-28.5 -96.5t-103.5 -78t-203 -31.5h-30v-13l445 -295h-153l-462 308h-154v-308h-95v720h449q128 0 203 -31.5zM743 425q54 37 54 89t-54 89t-184 37h-354v-252h354q130 0 184 37z" />
    <glyph glyph-name="racute" unicode="&#x155;" horiz-adv-x="569" 
d="M279 587h95l175 170h-112zM272 504.5q60 30.5 137 30.5q87 0 140 -28v-91q-22 19 -60 30.5t-91 11.5q-52 0 -103.5 -19.5t-87 -63.5t-35.5 -113v-262h-92v520h92v-94q40 48 100 78.5z" />
    <glyph glyph-name="uni0156" unicode="&#x156;" horiz-adv-x="974" 
d="M762 688.5q75 -31.5 103.5 -78t28.5 -96.5t-28.5 -96.5t-103.5 -78t-203 -31.5h-30v-13l445 -295h-153l-462 308h-154v-308h-95v720h449q128 0 203 -31.5zM743 425q54 37 54 89t-54 89t-184 37h-354v-252h354q130 0 184 37zM457 -57h99l-140 -198h-76z" />
    <glyph glyph-name="uni0157" unicode="&#x157;" horiz-adv-x="569" 
d="M272 504.5q60 30.5 137 30.5q87 0 140 -28v-91q-22 19 -60 30.5t-91 11.5q-52 0 -103.5 -19.5t-87 -63.5t-35.5 -113v-262h-92v520h92v-94q40 48 100 78.5zM65 -57h99l-140 -198h-76z" />
    <glyph glyph-name="Rcaron" unicode="&#x158;" horiz-adv-x="974" 
d="M443 852h24l96 78h105l-191 -155h-49l-191 155h110zM205 308v-308h-95v720h449q128 0 203 -31.5t103.5 -78t28.5 -96.5t-28.5 -96.5t-103.5 -78t-203 -31.5h-30v-13l445 -295h-153l-462 308h-154zM743 425q54 37 54 89t-54 89t-184 37h-354v-252h354q130 0 184 37z" />
    <glyph glyph-name="rcaron" unicode="&#x159;" horiz-adv-x="569" 
d="M294 664h26l117 93h99l-213 -170h-37l-213 170h104zM549 507v-91q-22 19 -60 30.5t-91 11.5q-52 0 -103.5 -19.5t-87 -63.5t-35.5 -113v-262h-92v520h92v-94q40 48 100 78.5t137 30.5q87 0 140 -28z" />
    <glyph glyph-name="Sacute" unicode="&#x15a;" horiz-adv-x="927" 
d="M427 790h86l149 140h-102zM263.5 446.5q-68.5 14.5 -100.5 33t-32 49.5q0 38 43 66t120.5 43.5t178.5 15.5q110 0 212.5 -23t165.5 -62v95q-67 32 -167 51.5t-211 19.5q-132 0 -230 -25.5t-150.5 -72t-52.5 -108.5q0 -58 33 -91.5t117 -57.5t256 -51q141 -22 213.5 -39.5
t104 -38.5t31.5 -54q0 -68 -100.5 -99t-244.5 -31q-114 0 -229.5 26.5t-176.5 68.5v-94q54 -36 172 -59.5t230 -23.5q200 0 320.5 53.5t120.5 158.5q0 61 -37.5 98t-122 62t-245.5 51q-150 24 -218.5 38.5z" />
    <glyph glyph-name="sacute" unicode="&#x15b;" horiz-adv-x="711" 
d="M303 587h95l175 170h-112zM163.5 1q78.5 -16 168.5 -16q104 0 181 20.5t117.5 58.5t40.5 87q0 43 -27 70t-89.5 44.5t-175.5 30.5q-104 12 -154 20.5t-72.5 22t-22.5 36.5q0 24 31 44t87.5 31.5t130.5 11.5q81 0 149 -13.5t116 -40.5v78q-33 22 -102.5 35.5t-162.5 13.5
q-104 0 -181 -22t-117.5 -60t-40.5 -84q0 -42 29.5 -69.5t91.5 -44.5t165 -28q106 -12 157.5 -21t73.5 -22t22 -35q0 -39 -64 -64t-175 -25q-94 0 -173 16.5t-122 42.5v-81q40 -21 118.5 -37z" />
    <glyph glyph-name="Scircumflex" unicode="&#x15c;" horiz-adv-x="927" 
d="M442 930h45l191 -155h-106l-96 78h-24l-96 -78h-105zM727.5 357q84.5 -25 122 -62t37.5 -98q0 -105 -120.5 -158.5t-320.5 -53.5q-112 0 -230 23.5t-172 59.5v94q61 -42 176.5 -68.5t229.5 -26.5q144 0 244.5 31t100.5 99q0 33 -31.5 54t-104 38.5t-213.5 39.5
q-172 27 -256 51t-117 57.5t-33 91.5q0 62 52.5 108.5t150.5 72t230 25.5q111 0 211 -19.5t167 -51.5v-95q-63 39 -165.5 62t-212.5 23q-101 0 -178.5 -15.5t-120.5 -43.5t-43 -66q0 -31 32 -49.5t100.5 -33t218.5 -38.5q161 -26 245.5 -51z" />
    <glyph glyph-name="scircumflex" unicode="&#x15d;" horiz-adv-x="711" 
d="M330 757h38l213 -170h-101l-117 93h-26l-117 -93h-103zM554.5 265.5q62.5 -17.5 89.5 -44.5t27 -70q0 -49 -40.5 -87t-117.5 -58.5t-181 -20.5q-90 0 -168.5 16t-118.5 37v81q43 -26 122 -42.5t173 -16.5q111 0 175 25t64 64q0 22 -22 35t-73.5 22t-157.5 21
q-103 11 -165 28t-91.5 44.5t-29.5 69.5q0 46 40.5 84t117.5 60t181 22q93 0 162.5 -13.5t102.5 -35.5v-78q-48 27 -116 40.5t-149 13.5q-74 0 -130.5 -11.5t-87.5 -31.5t-31 -44q0 -23 22.5 -36.5t72.5 -22t154 -20.5q113 -13 175.5 -30.5z" />
    <glyph glyph-name="Scedilla" unicode="&#x15e;" horiz-adv-x="927" 
d="M73 437.5q33 -33.5 117 -57.5t256 -51q141 -22 213.5 -39.5t104 -38.5t31.5 -54q0 -68 -100.5 -99t-244.5 -31q-114 0 -229.5 26.5t-176.5 68.5v-94q52 -34 165 -57.5t222 -25.5v-91q20 12 58 12q30 0 43 -10t13 -22q0 -13 -13.5 -21.5t-44.5 -8.5q-43 0 -66 13v-53
q25 -14 69 -14q55 0 86.5 24t31.5 60q0 38 -30.5 61t-85.5 23h-1v28q181 5 288.5 58.5t107.5 152.5q0 61 -37.5 98t-122 62t-245.5 51q-150 24 -218.5 38.5t-100.5 33t-32 49.5q0 38 43 66t120.5 43.5t178.5 15.5q110 0 212.5 -23t165.5 -62v95q-67 32 -167 51.5t-211 19.5
q-132 0 -230 -25.5t-150.5 -72t-52.5 -108.5q0 -58 33 -91.5z" />
    <glyph glyph-name="scedilla" unicode="&#x15f;" horiz-adv-x="711" 
d="M69.5 299.5q29.5 -27.5 91.5 -44.5t165 -28q106 -12 157.5 -21t73.5 -22t22 -35q0 -39 -64 -64t-175 -25q-94 0 -173 16.5t-122 42.5v-81q37 -20 109.5 -35.5t157.5 -17.5v-91q20 12 58 12q30 0 43 -10t13 -22q0 -13 -13.5 -21.5t-44.5 -8.5q-43 0 -66 13v-53
q25 -14 69 -14q55 0 86.5 24t31.5 60q0 38 -30.5 61t-85.5 23h-1v28q140 6 219.5 50.5t79.5 114.5q0 43 -27 70t-89.5 44.5t-175.5 30.5q-104 12 -154 20.5t-72.5 22t-22.5 36.5q0 24 31 44t87.5 31.5t130.5 11.5q81 0 149 -13.5t116 -40.5v78q-33 22 -102.5 35.5
t-162.5 13.5q-104 0 -181 -22t-117.5 -60t-40.5 -84q0 -42 29.5 -69.5z" />
    <glyph glyph-name="Scaron" unicode="&#x160;" horiz-adv-x="927" 
d="M458 852h24l96 78h105l-191 -155h-49l-191 155h110zM727.5 357q84.5 -25 122 -62t37.5 -98q0 -105 -120.5 -158.5t-320.5 -53.5q-112 0 -230 23.5t-172 59.5v94q61 -42 176.5 -68.5t229.5 -26.5q144 0 244.5 31t100.5 99q0 33 -31.5 54t-104 38.5t-213.5 39.5
q-172 27 -256 51t-117 57.5t-33 91.5q0 62 52.5 108.5t150.5 72t230 25.5q111 0 211 -19.5t167 -51.5v-95q-63 39 -165.5 62t-212.5 23q-101 0 -178.5 -15.5t-120.5 -43.5t-43 -66q0 -31 32 -49.5t100.5 -33t218.5 -38.5q161 -26 245.5 -51z" />
    <glyph glyph-name="scaron" unicode="&#x161;" horiz-adv-x="711" 
d="M346 664h26l117 93h99l-213 -170h-37l-213 170h104zM554.5 265.5q62.5 -17.5 89.5 -44.5t27 -70q0 -49 -40.5 -87t-117.5 -58.5t-181 -20.5q-90 0 -168.5 16t-118.5 37v81q43 -26 122 -42.5t173 -16.5q111 0 175 25t64 64q0 22 -22 35t-73.5 22t-157.5 21
q-103 11 -165 28t-91.5 44.5t-29.5 69.5q0 46 40.5 84t117.5 60t181 22q93 0 162.5 -13.5t102.5 -35.5v-78q-48 27 -116 40.5t-149 13.5q-74 0 -130.5 -11.5t-87.5 -31.5t-31 -44q0 -23 22.5 -36.5t72.5 -22t154 -20.5q113 -13 175.5 -30.5z" />
    <glyph glyph-name="Tcaron" unicode="&#x164;" horiz-adv-x="905" 
d="M444 852h24l96 78h105l-191 -155h-49l-191 155h110zM500 640v-640h-95v640h-390v80h875v-80h-390z" />
    <glyph glyph-name="tcaron" unicode="&#x165;" horiz-adv-x="564" 
d="M466 804h99l-140 -198h-76zM232 720v-200h272v-75h-272v-234q0 -76 47.5 -112.5t133.5 -36.5q42 0 79.5 8.5t61.5 22.5v-78q-20 -15 -60 -22.5t-89 -7.5q-115 0 -190 53.5t-75 160.5v246h-130v75h130v200h92z" />
    <glyph glyph-name="Tbar" unicode="&#x166;" horiz-adv-x="905" 
d="M890 640h-390v-251h237v-76h-237v-313h-95v313h-237v76h237v251h-390v80h875v-80z" />
    <glyph glyph-name="tbar" unicode="&#x167;" horiz-adv-x="564" 
d="M10 445v75h130v200h92v-200h272v-75h-272v-96h272v-70h-272v-68q0 -76 47.5 -112.5t133.5 -36.5q42 0 79.5 8.5t61.5 22.5v-78q-20 -15 -60 -22.5t-89 -7.5q-115 0 -190 53.5t-75 160.5v80h-130v70h130v96h-130z" />
    <glyph glyph-name="Utilde" unicode="&#x168;" horiz-adv-x="937" 
d="M342.5 846.5q15.5 19.5 39.5 19.5q18 0 33 -7.5t34 -23.5q28 -21 51.5 -32.5t61.5 -11.5q59 0 95.5 34.5t36.5 90.5h-75q0 -24 -15.5 -43.5t-39.5 -19.5q-18 0 -33 7.5t-34 23.5q-28 21 -51.5 32.5t-61.5 11.5q-59 0 -95.5 -34.5t-36.5 -90.5h75q0 24 15.5 43.5z
M123.5 174.5q48.5 -89.5 138 -139.5t209.5 -50t208.5 50t135.5 139t47 204v342h-90v-337q0 -99 -37.5 -170t-105.5 -108.5t-158 -37.5q-86 0 -154 37.5t-107.5 109t-39.5 169.5v337h-95v-342q0 -114 48.5 -203.5z" />
    <glyph glyph-name="utilde" unicode="&#x169;" 
d="M259.5 667.5q15.5 19.5 39.5 19.5q18 0 33 -7.5t34 -23.5q28 -21 51.5 -32.5t61.5 -11.5q59 0 95.5 34.5t36.5 90.5h-75q0 -24 -15.5 -43.5t-39.5 -19.5q-18 0 -33 7.5t-34 23.5q-28 21 -51.5 32.5t-61.5 11.5q-59 0 -95.5 -34.5t-36.5 -90.5h75q0 24 15.5 43.5z
M209.5 112q54.5 -50 161.5 -50q106 0 176 50t70 171v237h90v-520h-90v101q-42 -51 -109 -83.5t-159 -32.5q-77 0 -141.5 30t-103.5 90.5t-39 148.5v266h90v-251q0 -107 54.5 -157z" />
    <glyph glyph-name="Umacron" unicode="&#x16a;" horiz-adv-x="937" 
d="M316 817v70h320v-70h-320zM123.5 174.5q48.5 -89.5 138 -139.5t209.5 -50t208.5 50t135.5 139t47 204v342h-90v-337q0 -99 -37.5 -170t-105.5 -108.5t-158 -37.5q-86 0 -154 37.5t-107.5 109t-39.5 169.5v337h-95v-342q0 -114 48.5 -203.5z" />
    <glyph glyph-name="umacron" unicode="&#x16b;" 
d="M234 635v70h320v-70h-320zM209.5 112q54.5 -50 161.5 -50q106 0 176 50t70 171v237h90v-520h-90v101q-42 -51 -109 -83.5t-159 -32.5q-77 0 -141.5 30t-103.5 90.5t-39 148.5v266h90v-251q0 -107 54.5 -157z" />
    <glyph glyph-name="Ubreve" unicode="&#x16c;" horiz-adv-x="937" 
d="M598 893.5q-16 -21.5 -48 -35t-77 -13.5t-77 13.5t-48 35t-16 44.5h-75q0 -39 25 -75t74 -58t117 -22t117 22t74 58t25 75h-75q0 -23 -16 -44.5zM123.5 174.5q48.5 -89.5 138 -139.5t209.5 -50t208.5 50t135.5 139t47 204v342h-90v-337q0 -99 -37.5 -170t-105.5 -108.5
t-158 -37.5q-86 0 -154 37.5t-107.5 109t-39.5 169.5v337h-95v-342q0 -114 48.5 -203.5z" />
    <glyph glyph-name="ubreve" unicode="&#x16d;" 
d="M517 702.5q-16 -24.5 -48.5 -39.5t-77.5 -15t-77.5 15t-48.5 39.5t-16 52.5h-79q0 -44 25.5 -83.5t76 -63.5t119.5 -24t119.5 24t76 63.5t25.5 83.5h-79q0 -28 -16 -52.5zM209.5 112q54.5 -50 161.5 -50q106 0 176 50t70 171v237h90v-520h-90v101q-42 -51 -109 -83.5
t-159 -32.5q-77 0 -141.5 30t-103.5 90.5t-39 148.5v266h90v-251q0 -107 54.5 -157z" />
    <glyph glyph-name="Uring" unicode="&#x16e;" horiz-adv-x="937" 
d="M395.5 934.5q34.5 29.5 84.5 29.5t84.5 -29.5t34.5 -72.5t-34.5 -72.5t-84.5 -29.5t-84.5 29.5t-34.5 72.5t34.5 72.5zM439.5 895.5q-17.5 -13.5 -17.5 -33.5t17.5 -33.5t41.5 -13.5q25 0 41 13.5t16 33.5t-16 33.5t-41 13.5q-24 0 -41.5 -13.5zM123.5 174.5
q48.5 -89.5 138 -139.5t209.5 -50t208.5 50t135.5 139t47 204v342h-90v-337q0 -99 -37.5 -170t-105.5 -108.5t-158 -37.5q-86 0 -154 37.5t-107.5 109t-39.5 169.5v337h-95v-342q0 -114 48.5 -203.5z" />
    <glyph glyph-name="uring" unicode="&#x16f;" 
d="M303.5 745.5q34.5 29.5 84.5 29.5t84.5 -29.5t34.5 -72.5t-34.5 -72.5t-84.5 -29.5t-84.5 29.5t-34.5 72.5t34.5 72.5zM347.5 706.5q-17.5 -13.5 -17.5 -33.5t17.5 -33.5t41.5 -13.5q25 0 41 13.5t16 33.5t-16 33.5t-41 13.5q-24 0 -41.5 -13.5zM209.5 112
q54.5 -50 161.5 -50q106 0 176 50t70 171v237h90v-520h-90v101q-42 -51 -109 -83.5t-159 -32.5q-77 0 -141.5 30t-103.5 90.5t-39 148.5v266h90v-251q0 -107 54.5 -157z" />
    <glyph glyph-name="Uhungarumlaut" unicode="&#x170;" horiz-adv-x="937" 
d="M318 790h94l149 140h-110zM506 790h94l149 140h-110zM123.5 174.5q48.5 -89.5 138 -139.5t209.5 -50t208.5 50t135.5 139t47 204v342h-90v-337q0 -99 -37.5 -170t-105.5 -108.5t-158 -37.5q-86 0 -154 37.5t-107.5 109t-39.5 169.5v337h-95v-342q0 -114 48.5 -203.5z" />
    <glyph glyph-name="uhungarumlaut" unicode="&#x171;" 
d="M258 587h88l175 170h-105zM435 587h88l175 170h-105zM209.5 112q54.5 -50 161.5 -50q106 0 176 50t70 171v237h90v-520h-90v101q-42 -51 -109 -83.5t-159 -32.5q-77 0 -141.5 30t-103.5 90.5t-39 148.5v266h90v-251q0 -107 54.5 -157z" />
    <glyph glyph-name="Uogonek" unicode="&#x172;" horiz-adv-x="937" 
d="M528 -129q38 0 63 14v-59q-22 -14 -66 -14q-62 0 -91.5 26.5t-29.5 64.5q0 28 10.5 47t32.5 36q-113 5 -197.5 56t-129.5 138.5t-45 197.5v342h95v-337q0 -98 39.5 -169.5t107.5 -109t154 -37.5q90 0 158 37.5t105.5 108.5t37.5 170v337h90v-342q0 -140 -69.5 -240.5
t-193.5 -135.5q-72 -20 -100 -38t-28 -49q0 -44 57 -44z" />
    <glyph glyph-name="uogonek" unicode="&#x173;" 
d="M209.5 112q54.5 -50 161.5 -50q106 0 176 50t70 171v237h90v-520q-40 -13 -62.5 -34t-22.5 -46q0 -21 13.5 -32t37.5 -11q38 0 63 14v-65q-25 -14 -66 -14q-59 0 -91 25t-32 68q0 58 70 95v101q-42 -51 -109 -83.5t-159 -32.5q-77 0 -141.5 30t-103.5 90.5t-39 148.5v266
h90v-251q0 -107 54.5 -157z" />
    <glyph glyph-name="Wcircumflex" unicode="&#x174;" horiz-adv-x="1355" 
d="M666 930h45l191 -155h-106l-96 78h-24l-96 -78h-105zM931 0l-235 629h-21l-236 -629h-154l-275 720h107l241 -630h21l236 630h150l235 -630h20l231 630h94l-264 -720h-150z" />
    <glyph glyph-name="wcircumflex" unicode="&#x175;" horiz-adv-x="1045" 
d="M504 757h38l213 -170h-101l-117 93h-26l-117 -93h-103zM714 0l-177 432h-19l-175 -432h-125l-213 520h95l176 -430h21l174 430h115l176 -430h21l174 430h83l-211 -520h-115z" />
    <glyph glyph-name="Ycircumflex" unicode="&#x176;" horiz-adv-x="901" 
d="M439 930h45l191 -155h-106l-96 78h-24l-96 -78h-105zM508 0h-95v254l-413 466h116l337 -380h22l321 380h105l-393 -466v-254z" />
    <glyph glyph-name="ycircumflex" unicode="&#x177;" horiz-adv-x="717" 
d="M345 757h38l213 -170h-101l-117 93h-26l-117 -93h-103zM197 -200l129 217l-326 503h107l256 -395h28l236 395h90l-430 -720h-90z" />
    <glyph glyph-name="Ydieresis" unicode="&#x178;" horiz-adv-x="901" 
d="M283.5 894q-20.5 -17 -20.5 -42t20.5 -41.5t50.5 -16.5t50.5 16.5t20.5 41.5t-20.5 42t-50.5 17t-50.5 -17zM541.5 894q-20.5 -17 -20.5 -42t20.5 -41.5t50.5 -16.5t50.5 16.5t20.5 41.5t-20.5 42t-50.5 17t-50.5 -17zM475 340l321 380h105l-393 -466v-254h-95v254
l-413 466h116l337 -380h22z" />
    <glyph glyph-name="Zacute" unicode="&#x179;" horiz-adv-x="880" 
d="M396 790h86l149 140h-102zM724 640h-674v80h780v-125l-672 -488v-27h672v-80h-780v127l674 489v24z" />
    <glyph glyph-name="zacute" unicode="&#x17a;" horiz-adv-x="673" 
d="M280 587h95l175 170h-112zM524 447h-479v73h583v-110l-467 -314v-23h467v-73h-583v105l479 322v20z" />
    <glyph glyph-name="Zdotaccent" unicode="&#x17b;" horiz-adv-x="880" 
d="M405 894q-21 -17 -21 -42t21 -41.5t54 -16.5t54 16.5t21 41.5t-21 42t-54 17t-54 -17zM724 640h-674v80h780v-125l-672 -488v-27h672v-80h-780v127l674 489v24z" />
    <glyph glyph-name="zdotaccent" unicode="&#x17c;" horiz-adv-x="673" 
d="M280 715q-21 -17 -21 -42t21 -41.5t54 -16.5t54 16.5t21 41.5t-21 42t-54 17t-54 -17zM524 447h-479v73h583v-110l-467 -314v-23h467v-73h-583v105l479 322v20z" />
    <glyph glyph-name="Zcaron" unicode="&#x17d;" horiz-adv-x="880" 
d="M439 852h24l96 78h105l-191 -155h-49l-191 155h110zM830 80v-80h-780v127l674 489v24h-674v80h780v-125l-672 -488v-27h672z" />
    <glyph glyph-name="zcaron" unicode="&#x17e;" horiz-adv-x="673" 
d="M324 664h26l117 93h99l-213 -170h-37l-213 170h104zM628 73v-73h-583v105l479 322v20h-479v73h583v-110l-467 -314v-23h467z" />
    <glyph glyph-name="uni018F" unicode="&#x18f;" horiz-adv-x="1091" 
d="M108 180q63 -90 176.5 -142.5t258.5 -52.5q146 0 259 48t176 133t63 194q0 108 -62.5 192.5t-188 133.5t-308.5 49q-110 0 -207.5 -21t-159.5 -61v-103q60 47 153.5 73.5t213.5 26.5q149 0 251 -35t154 -96t58 -139h-900q0 -110 63 -200zM868 184q-54 -53 -138 -83.5
t-187 -30.5q-97 0 -178.5 31t-136 84t-75.5 118h786q-17 -66 -71 -119z" />
    <glyph glyph-name="uni01C4" unicode="&#x1c4;" horiz-adv-x="1919" 
d="M1478 852h24l96 78h105l-191 -155h-49l-191 155h110zM858.5 623.5q130.5 -96.5 130.5 -263.5q0 -360 -578 -360h-301v720h301q317 0 447.5 -96.5zM1869 80v-80h-780v127l674 489v24h-674v80h780v-125l-672 -488v-27h672zM771.5 149.5q119.5 69.5 119.5 210.5t-120 210.5
t-364 69.5h-202v-560h202q245 0 364.5 69.5z" />
    <glyph glyph-name="uni01C5" unicode="&#x1c5;" horiz-adv-x="1692" 
d="M1343 664h26l117 93h99l-213 -170h-37l-213 170h104zM858.5 623.5q130.5 -96.5 130.5 -263.5q0 -360 -578 -360h-301v720h301q317 0 447.5 -96.5zM771.5 149.5q119.5 69.5 119.5 210.5t-120 210.5t-364 69.5h-202v-560h202q245 0 364.5 69.5zM1647 73v-73h-583v105
l479 322v20h-479v73h583v-110l-467 -314v-23h467z" />
    <glyph glyph-name="uni01C6" unicode="&#x1c6;" horiz-adv-x="1532" 
d="M1183 664h26l117 93h99l-213 -170h-37l-213 170h104zM689 0v92q-53 -48 -126 -77.5t-163 -29.5q-107 0 -189 36.5t-126.5 99t-44.5 139.5q0 71 46 134.5t129.5 102t189.5 38.5q90 0 161 -29t123 -77v291h90v-720h-90zM1487 73v-73h-583v105l479 322v20h-479v73h583v-110
l-467 -314v-23h467zM567 88q65 26 101 71t36 101t-36 101t-101 71t-149 26t-149 -26t-101 -71t-36 -101t36 -101t101 -71t149 -26t149 26z" />
    <glyph glyph-name="uni01C7" unicode="&#x1c7;" horiz-adv-x="1521" 
d="M205 80h585v-80h-680v720h95v-640zM942 7.5q70 -22.5 151 -22.5q91 0 169 30t128.5 103.5t50.5 194.5v407h-95v-388q0 -154 -72.5 -211.5t-185.5 -57.5q-77 0 -145.5 30t-107.5 71v-102q37 -32 107 -54.5z" />
    <glyph glyph-name="uni01C8" unicode="&#x1c8;" horiz-adv-x="1060" 
d="M881 715q-21 -17 -21 -42t21 -41.5t54 -16.5t54 16.5t21 41.5t-21 42t-54 17t-54 -17zM205 80h585v-80h-680v720h95v-640zM923.5 -154.5q-56.5 -55.5 -152.5 -55.5q-39 0 -71 9.5t-54 25.5v85q24 -20 54.5 -31.5t59.5 -11.5q130 0 130 129v524h90v-524
q0 -95 -56.5 -150.5z" />
    <glyph glyph-name="uni01C9" unicode="&#x1c9;" horiz-adv-x="500" 
d="M321 715q-21 -17 -21 -42t21 -41.5t54 -16.5t54 16.5t21 41.5t-21 42t-54 17t-54 -17zM80 720h90v-720h-90v720zM363.5 -154.5q-56.5 -55.5 -152.5 -55.5q-39 0 -71 9.5t-54 25.5v85q24 -20 54.5 -31.5t59.5 -11.5q130 0 130 129v524h90v-524q0 -95 -56.5 -150.5z" />
    <glyph glyph-name="uni01CA" unicode="&#x1ca;" horiz-adv-x="1766" 
d="M827 90h23v630h95v-720h-154l-563 629h-23v-629h-95v720h160zM1187 7.5q70 -22.5 151 -22.5q91 0 169 30t128.5 103.5t50.5 194.5v407h-95v-388q0 -154 -72.5 -211.5t-185.5 -57.5q-77 0 -145.5 30t-107.5 71v-102q37 -32 107 -54.5z" />
    <glyph glyph-name="uni01CB" unicode="&#x1cb;" horiz-adv-x="1305" 
d="M1126 715q-21 -17 -21 -42t21 -41.5t54 -16.5t54 16.5t21 41.5t-21 42t-54 17t-54 -17zM827 90h23v630h95v-720h-154l-563 629h-23v-629h-95v720h160zM1168.5 -154.5q-56.5 -55.5 -152.5 -55.5q-39 0 -71 9.5t-54 25.5v85q24 -20 54.5 -31.5t59.5 -11.5q130 0 130 129
v524h90v-524q0 -95 -56.5 -150.5z" />
    <glyph glyph-name="uni01CC" unicode="&#x1cc;" horiz-adv-x="1037" 
d="M858 715q-21 -17 -21 -42t21 -41.5t54 -16.5t54 16.5t21 41.5t-21 42t-54 17t-54 -17zM279 502.5q67 32.5 159 32.5q128 0 206 -65t78 -204v-266h-90v251q0 107 -54.5 157t-161.5 50q-106 0 -176 -50t-70 -171v-237h-90v520h90v-101q42 51 109 83.5zM900.5 -154.5
q-56.5 -55.5 -152.5 -55.5q-39 0 -71 9.5t-54 25.5v85q24 -20 54.5 -31.5t59.5 -11.5q130 0 130 129v524h90v-524q0 -95 -56.5 -150.5z" />
    <glyph glyph-name="uni01F1" unicode="&#x1f1;" horiz-adv-x="1919" 
d="M858.5 623.5q130.5 -96.5 130.5 -263.5q0 -360 -578 -360h-301v720h301q317 0 447.5 -96.5zM1763 640h-674v80h780v-125l-672 -488v-27h672v-80h-780v127l674 489v24zM771.5 149.5q119.5 69.5 119.5 210.5t-120 210.5t-364 69.5h-202v-560h202q245 0 364.5 69.5z" />
    <glyph glyph-name="uni01F2" unicode="&#x1f2;" horiz-adv-x="1692" 
d="M858.5 623.5q130.5 -96.5 130.5 -263.5q0 -360 -578 -360h-301v720h301q317 0 447.5 -96.5zM771.5 149.5q119.5 69.5 119.5 210.5t-120 210.5t-364 69.5h-202v-560h202q245 0 364.5 69.5zM1543 447h-479v73h583v-110l-467 -314v-23h467v-73h-583v105l479 322v20z" />
    <glyph glyph-name="uni01F3" unicode="&#x1f3;" horiz-adv-x="1532" 
d="M563 14.5q-73 -29.5 -163 -29.5q-107 0 -189 36.5t-126.5 99t-44.5 139.5q0 71 46 134.5t129.5 102t189.5 38.5q90 0 161 -29t123 -77v291h90v-720h-90v92q-53 -48 -126 -77.5zM1383 447h-479v73h583v-110l-467 -314v-23h467v-73h-583v105l479 322v20zM668 361
q-36 45 -101 71t-149 26t-149 -26t-101 -71t-36 -101t36 -101t101 -71t149 -26t149 26t101 71t36 101t-36 101z" />
    <glyph glyph-name="Aringacute" unicode="&#x1fa;" horiz-adv-x="1037" 
d="M496 1004h86l149 140h-102zM438.5 934.5q34.5 29.5 84.5 29.5t84.5 -29.5t34.5 -72.5t-34.5 -72.5t-84.5 -29.5t-84.5 29.5t-34.5 72.5t34.5 72.5zM482.5 895.5q-17.5 -13.5 -17.5 -33.5t17.5 -33.5t41.5 -13.5q25 0 41 13.5t16 33.5t-16 33.5t-41 13.5
q-24 0 -41.5 -13.5zM1058 0h-112l-131 209h-558l-133 -209h-103l459 720h125zM529 635l-221 -346h456l-218 346h-17z" />
    <glyph glyph-name="aringacute" unicode="&#x1fb;" horiz-adv-x="794" 
d="M361 811h86l149 140h-102zM314.5 745.5q34.5 29.5 84.5 29.5t84.5 -29.5t34.5 -72.5t-34.5 -72.5t-84.5 -29.5t-84.5 29.5t-34.5 72.5t34.5 72.5zM358.5 706.5q-17.5 -13.5 -17.5 -33.5t17.5 -33.5t41.5 -13.5q25 0 41 13.5t16 33.5t-16 33.5t-41 13.5q-24 0 -41.5 -13.5
zM115 23.5q75 -38.5 211 -38.5q113 0 188.5 30t126.5 86v-101h88v327q0 107 -96 157.5t-261 50.5q-86 0 -165 -17.5t-136 -54.5v-92q51 40 129 63.5t169 23.5q137 0 206 -29t69 -76q0 -23 -24.5 -34t-72 -15t-154.5 -8l-85 -4q-141 -7 -204.5 -43.5t-63.5 -105.5
q0 -81 75 -119.5zM600.5 148.5q-40.5 -42.5 -109.5 -64.5t-153 -22q-202 0 -202 81q0 40 46 58t143 21q15 0 22 1q133 4 199.5 11t94.5 28v-11q0 -60 -40.5 -102.5z" />
    <glyph glyph-name="AEacute" unicode="&#x1fc;" horiz-adv-x="1645" 
d="M1011 790h86l149 140h-102zM1575 640h-660v-219h570v-80h-570v-261h660v-80h-755v210h-477l-223 -210h-120l764 720h811v-80zM801 642l-373 -352h392v352h-19z" />
    <glyph glyph-name="aeacute" unicode="&#x1fd;" horiz-adv-x="1314" 
d="M626 587h95l175 170h-112zM110 25.5q70 -40.5 196 -40.5q216 0 325 129q47 -61 137 -95t212 -34q69 0 136 14.5t120 41.5v83q-52 -31 -118 -47.5t-138 -16.5q-144 0 -219.5 51.5t-78.5 141.5h592v12q0 75 -41 136.5t-119.5 97.5t-185.5 36q-83 0 -152.5 -28t-117.5 -78
q-48 53 -127 79.5t-179 26.5q-75 0 -151.5 -18.5t-129.5 -53.5v-92q46 40 120 63.5t158 23.5q110 0 183 -36.5t73 -101.5v-2h-215q-350 0 -350 -164q0 -88 70 -128.5zM775.5 424q62.5 41 150.5 41q105 0 169 -40.5t82 -106.5h-486q22 65 84.5 106zM193 227q57 26 197 26h215
v-10q0 -56 -41 -97t-107 -62.5t-139 -21.5q-87 0 -134.5 21.5t-47.5 70.5q0 47 57 73z" />
    <glyph glyph-name="Oslashacute" unicode="&#x1fe;" horiz-adv-x="1096" 
d="M507 790h86l149 140h-102zM88.5 204.5q38.5 -70.5 109.5 -121.5l-124 -118h116l80 76q120 -56 278 -56q146 0 259 48t176 133t63 194q0 82 -39 153t-111 122l125 119h-116l-81 -77q-121 58 -276 58q-145 0 -258.5 -49.5t-176.5 -135t-63 -190.5q0 -85 38.5 -155.5z
M196 507q51 67 143 106.5t209 39.5q118 0 209 -40l-491 -466q-58 41 -89.5 96t-31.5 117q0 80 51 147zM919.5 477q31.5 -55 31.5 -117q0 -79 -51 -146.5t-143 -107t-209 -39.5q-115 0 -209 40l491 466q58 -41 89.5 -96z" />
    <glyph glyph-name="oslashacute" unicode="&#x1ff;" horiz-adv-x="836" 
d="M378 587h95l175 170h-112zM70.5 147.5q30.5 -52.5 85.5 -90.5l-96 -92h102l59 57q86 -37 197 -37q109 0 195 36.5t134.5 99.5t48.5 139q0 59 -30.5 111.5t-85.5 90.5l96 93h-102l-60 -57q-88 37 -196 37q-109 0 -195 -36.5t-134.5 -99.5t-48.5 -139q0 -60 30.5 -112.5z
M168 361q36 45 101 71t149 26q74 0 134 -20l-336 -323q-40 27 -62 64.5t-22 80.5q0 56 36 101zM682 340.5q22 -37.5 22 -80.5q0 -56 -36 -101t-101 -71t-149 -26q-74 0 -134 20l336 323q40 -27 62 -64.5z" />
    <glyph glyph-name="uni0218" unicode="&#x218;" horiz-adv-x="927" 
d="M263.5 446.5q-68.5 14.5 -100.5 33t-32 49.5q0 38 43 66t120.5 43.5t178.5 15.5q110 0 212.5 -23t165.5 -62v95q-67 32 -167 51.5t-211 19.5q-132 0 -230 -25.5t-150.5 -72t-52.5 -108.5q0 -58 33 -91.5t117 -57.5t256 -51q141 -22 213.5 -39.5t104 -38.5t31.5 -54
q0 -68 -100.5 -99t-244.5 -31q-114 0 -229.5 26.5t-176.5 68.5v-94q54 -36 172 -59.5t230 -23.5q200 0 320.5 53.5t120.5 158.5q0 61 -37.5 98t-122 62t-245.5 51q-150 24 -218.5 38.5zM433 -57h99l-140 -198h-76z" />
    <glyph glyph-name="uni0219" unicode="&#x219;" horiz-adv-x="711" 
d="M163.5 1q78.5 -16 168.5 -16q104 0 181 20.5t117.5 58.5t40.5 87q0 43 -27 70t-89.5 44.5t-175.5 30.5q-104 12 -154 20.5t-72.5 22t-22.5 36.5q0 24 31 44t87.5 31.5t130.5 11.5q81 0 149 -13.5t116 -40.5v78q-33 22 -102.5 35.5t-162.5 13.5q-104 0 -181 -22
t-117.5 -60t-40.5 -84q0 -42 29.5 -69.5t91.5 -44.5t165 -28q106 -12 157.5 -21t73.5 -22t22 -35q0 -39 -64 -64t-175 -25q-94 0 -173 16.5t-122 42.5v-81q40 -21 118.5 -37zM323 -57h99l-140 -198h-76z" />
    <glyph glyph-name="uni021A" unicode="&#x21a;" horiz-adv-x="905" 
d="M890 640h-390v-640h-95v640h-390v80h875v-80zM393 -57h99l-140 -198h-76z" />
    <glyph glyph-name="uni021B" unicode="&#x21b;" horiz-adv-x="564" 
d="M232 720v-200h272v-75h-272v-234q0 -76 47.5 -112.5t133.5 -36.5q42 0 79.5 8.5t61.5 22.5v-78q-20 -15 -60 -22.5t-89 -7.5q-115 0 -190 53.5t-75 160.5v246h-130v75h130v200h92zM324 -57h99l-140 -198h-76z" />
    <glyph glyph-name="uni0237" unicode="&#x237;" horiz-adv-x="250" 
d="M113.5 -154.5q-56.5 -55.5 -152.5 -55.5q-39 0 -71 9.5t-54 25.5v85q24 -20 54.5 -31.5t59.5 -11.5q130 0 130 129v524h90v-524q0 -95 -56.5 -150.5z" />
    <glyph glyph-name="uni0259" unicode="&#x259;" horiz-adv-x="840" 
d="M87.5 120q47.5 -64 134 -99.5t198.5 -35.5t198.5 35t134 97.5t47.5 142.5q0 127 -110 201t-327 74q-82 0 -156.5 -15t-128.5 -43v-83q53 31 126 48.5t159 17.5q163 0 250 -48.5t95 -134.5h-668v-12q0 -81 47.5 -145zM608 97.5q-75 -42.5 -188 -42.5t-186 42.5t-94 114.5
h563q-20 -72 -95 -114.5z" />
    <glyph glyph-name="uni02BC" unicode="&#x2bc;" horiz-adv-x="275" 
d="M115 500h-110l156 220h84z" />
    <glyph glyph-name="circumflex" unicode="&#x2c6;" horiz-adv-x="424" 
d="M83 587h-103l213 170h38l213 -170h-101l-117 93h-26z" />
    <glyph glyph-name="caron" unicode="&#x2c7;" horiz-adv-x="426" 
d="M195 587l-213 170h104l117 -93h26l117 93h99l-213 -170h-37z" />
    <glyph glyph-name="breve" unicode="&#x2d8;" horiz-adv-x="462" 
d="M357 702.5q-16 -24.5 -48.5 -39.5t-77.5 -15t-77.5 15t-48.5 39.5t-16 52.5h-79q0 -44 25.5 -83.5t76 -63.5t119.5 -24t119.5 24t76 63.5t25.5 83.5h-79q0 -28 -16 -52.5z" />
    <glyph glyph-name="dotaccent" unicode="&#x2d9;" horiz-adv-x="142" 
d="M17 715q-21 -17 -21 -42t21 -41.5t54 -16.5t54 16.5t21 41.5t-21 42t-54 17t-54 -17z" />
    <glyph glyph-name="ring" unicode="&#x2da;" horiz-adv-x="238" 
d="M34.5 745.5q34.5 29.5 84.5 29.5t84.5 -29.5t34.5 -72.5t-34.5 -72.5t-84.5 -29.5t-84.5 29.5t-34.5 72.5t34.5 72.5zM78.5 706.5q-17.5 -13.5 -17.5 -33.5t17.5 -33.5t41.5 -13.5q25 0 41 13.5t16 33.5t-16 33.5t-41 13.5q-24 0 -41.5 -13.5z" />
    <glyph glyph-name="ogonek" unicode="&#x2db;" horiz-adv-x="227" 
d="M41 -35q-23 -25 -23 -56q0 -40 33 -68.5t90 -28.5q41 0 66 14v65q-25 -14 -63 -14q-24 0 -37.5 11t-13.5 32q0 24 26.5 46.5t58.5 33.5h-90q-24 -10 -47 -35z" />
    <glyph glyph-name="tilde" unicode="&#x2dc;" horiz-adv-x="502" 
d="M120.5 667.5q15.5 19.5 39.5 19.5q18 0 33 -7.5t34 -23.5q28 -21 51.5 -32.5t61.5 -11.5q59 0 95.5 34.5t36.5 90.5h-75q0 -24 -15.5 -43.5t-39.5 -19.5q-18 0 -33 7.5t-34 23.5q-28 21 -51.5 32.5t-61.5 11.5q-59 0 -95.5 -34.5t-36.5 -90.5h75q0 24 15.5 43.5z" />
    <glyph glyph-name="hungarumlaut" unicode="&#x2dd;" horiz-adv-x="464" 
d="M12 587h88l175 170h-105zM189 587h88l175 170h-105z" />
    <glyph glyph-name="uni0326" unicode="&#x326;" horiz-adv-x="0" 
d="M-127 -57h99l-140 -198h-76z" />
    <glyph glyph-name="uni0401" unicode="&#x401;" horiz-adv-x="935" 
d="M321.5 894q-20.5 -17 -20.5 -42t20.5 -41.5t50.5 -16.5t50.5 16.5t20.5 41.5t-20.5 42t-50.5 17t-50.5 -17zM579.5 894q-20.5 -17 -20.5 -42t20.5 -41.5t50.5 -16.5t50.5 16.5t20.5 41.5t-20.5 42t-50.5 17t-50.5 -17zM865 640h-660v-219h570v-80h-570v-261h660v-80h-755
v720h755v-80z" />
    <glyph glyph-name="uni0402" unicode="&#x402;" horiz-adv-x="1067" 
d="M390 640v-229q54 15 125 22.5t121 7.5q173 0 277 -52t104 -168q0 -71 -42 -124.5t-118 -82.5t-176 -29q-44 0 -60 4v85q24 -4 57 -4q101 0 170.5 37t69.5 114q0 78 -77.5 106.5t-211.5 28.5q-75 0 -128 -6t-111 -22v-328h-95v640h-280v80h770v-80h-395z" />
    <glyph glyph-name="uni0403" unicode="&#x403;" horiz-adv-x="810" 
d="M425 790h86l149 140h-102zM790 640h-585v-640h-95v720h680v-80z" />
    <glyph glyph-name="uni0404" unicode="&#x404;" horiz-adv-x="972" 
d="M772 92q-87 -25 -193 -25q-127 0 -222.5 31.5t-150.5 93t-60 148.5h606v80h-600q25 112 140 172.5t287 60.5q109 0 192 -26.5t137 -68.5v102q-134 75 -329 75q-153 0 -273 -44.5t-188 -129.5t-68 -201q0 -117 66 -201.5t185.5 -129t277.5 -44.5q102 0 188 19.5t150 55.5
v102q-58 -45 -145 -70z" />
    <glyph glyph-name="uni0405" unicode="&#x405;" horiz-adv-x="927" 
d="M263.5 446.5q-68.5 14.5 -100.5 33t-32 49.5q0 38 43 66t120.5 43.5t178.5 15.5q110 0 212.5 -23t165.5 -62v95q-67 32 -167 51.5t-211 19.5q-132 0 -230 -25.5t-150.5 -72t-52.5 -108.5q0 -58 33 -91.5t117 -57.5t256 -51q141 -22 213.5 -39.5t104 -38.5t31.5 -54
q0 -68 -100.5 -99t-244.5 -31q-114 0 -229.5 26.5t-176.5 68.5v-94q54 -36 172 -59.5t230 -23.5q200 0 320.5 53.5t120.5 158.5q0 61 -37.5 98t-122 62t-245.5 51q-150 24 -218.5 38.5z" />
    <glyph glyph-name="uni0406" unicode="&#x406;" horiz-adv-x="315" 
d="M110 0v720h95v-720h-95z" />
    <glyph glyph-name="uni0407" unicode="&#x407;" horiz-adv-x="315" 
d="M34.5 894q-17.5 -17 -17.5 -42t17.5 -41.5t43.5 -16.5t43.5 16.5t17.5 41.5t-17.5 42t-43.5 17t-43.5 -17zM192.5 894q-17.5 -17 -17.5 -42t17.5 -41.5t43.5 -16.5t43.5 16.5t17.5 41.5t-17.5 42t-43.5 17t-43.5 -17zM110 0v720h95v-720h-95z" />
    <glyph glyph-name="uni0408" unicode="&#x408;" horiz-adv-x="711" 
d="M132 7.5q70 -22.5 151 -22.5q91 0 169 30t128.5 103.5t50.5 194.5v407h-95v-388q0 -154 -72.5 -211.5t-185.5 -57.5q-77 0 -145.5 30t-107.5 71v-102q37 -32 107 -54.5z" />
    <glyph glyph-name="uni0409" unicode="&#x409;" horiz-adv-x="1499" 
d="M76 -15q81 0 129.5 53t70.5 169t22 311v122h422v-640h389q191 0 268 63.5t77 159.5q0 97 -77 160t-268 63h-294v274h-606v-189q0 -182 -17 -283.5t-48 -140t-77 -38.5q-21 0 -27 2v-83q15 -3 36 -3zM1298.5 327q58.5 -39 58.5 -104t-58.5 -104t-189.5 -39h-294v286h294
q131 0 189.5 -39z" />
    <glyph glyph-name="uni040A" unicode="&#x40a;" horiz-adv-x="1474" 
d="M705 0h379q191 0 268 61.5t77 156.5q0 96 -76.5 157t-268.5 61h-284v284h-95v-284h-500v284h-95v-720h95v358h500v-358zM1273.5 320.5q58.5 -37.5 58.5 -102.5t-58.5 -102.5t-189.5 -37.5h-284v280h284q131 0 189.5 -37.5z" />
    <glyph glyph-name="uni040B" unicode="&#x40b;" horiz-adv-x="1075" 
d="M390 640v-225q105 26 241 26q187 0 283 -71t96 -214v-156h-95v133q0 126 -75.5 174.5t-215.5 48.5q-53 0 -116.5 -6.5t-117.5 -21.5v-328h-95v640h-280v80h770v-80h-395z" />
    <glyph glyph-name="uni040C" unicode="&#x40c;" horiz-adv-x="973" 
d="M439 790h86l149 140h-102zM205 424h20l689 311v-83l-610 -274v-16l669 -362h-178l-571 309h-19v-309h-95v720h95v-296z" />
    <glyph glyph-name="uni040E" unicode="&#x40e;" horiz-adv-x="872" 
d="M584 892.5q-16 -21.5 -48 -35t-77 -13.5t-77 13.5t-48 35t-16 44.5h-75q0 -39 25 -75t74 -58t117 -22t117 22t74 58t25 75h-75q0 -23 -16 -44.5zM468 280l304 440h100l-497 -720h-100l126 183l-401 537h111l328 -440h29z" />
    <glyph glyph-name="uni040F" unicode="&#x40f;" horiz-adv-x="955" 
d="M520 -140v140h325v720h-95v-640h-545v640h-95v-720h325v-140h85z" />
    <glyph glyph-name="uni0410" unicode="&#x410;" horiz-adv-x="1069" 
d="M1058 0h-112l-131 209h-558l-133 -209h-103l459 720h125zM529 635l-221 -346h456l-218 346h-17z" />
    <glyph glyph-name="uni0411" unicode="&#x411;" horiz-adv-x="964" 
d="M841.5 61.5q77.5 61.5 77.5 149.5q0 93 -77 152t-268 59h-369v218h634v80h-729v-720h464q190 0 267.5 61.5zM763 305.5q59 -36.5 59 -94.5t-59 -94.5t-189 -36.5h-369v262h369q130 0 189 -36.5z" />
    <glyph glyph-name="uni0412" unicode="&#x412;" horiz-adv-x="970" 
d="M808 667q70 -53 70 -135q0 -51 -35.5 -90.5t-83.5 -59.5q68 -17 117 -61.5t49 -112.5q0 -59 -36 -106t-112.5 -74.5t-191.5 -27.5h-475v720h452q176 0 246 -53zM726.5 442q53.5 29 53.5 83q0 55 -54 85t-156 30h-367v-227h367q103 0 156.5 29zM769.5 115q57.5 35 57.5 93
q0 57 -57 91t-177 34h-390v-253h390q119 0 176.5 35z" />
    <glyph glyph-name="uni0413" unicode="&#x413;" horiz-adv-x="810" 
d="M790 640h-585v-640h-95v720h680v-80z" />
    <glyph glyph-name="uni0414" unicode="&#x414;" horiz-adv-x="1026" 
d="M171.5 175q23.5 57 36.5 162t13 274v109h665v-640h115v-220h-85v140h-816v-140h-85v220h96q37 38 60.5 95zM310 595q0 -203 -21.5 -328.5t-63.5 -186.5h566v560h-481v-45z" />
    <glyph glyph-name="uni0415" unicode="&#x415;" horiz-adv-x="935" 
d="M865 640h-660v-219h570v-80h-570v-261h660v-80h-755v720h755v-80z" />
    <glyph glyph-name="uni0416" unicode="&#x416;" horiz-adv-x="1282" 
d="M45 641v94l525 -335h21v320h95v-320h21l525 335v-91l-428 -273v-14l478 -357h-146l-429 323h-21v-323h-95v323h-22l-430 -323h-139l474 353v14z" />
    <glyph glyph-name="uni0417" unicode="&#x417;" horiz-adv-x="916" 
d="M219.5 10.5q106.5 -25.5 234.5 -25.5q193 0 300 58.5t107 162.5q0 69 -53 114.5t-145 62.5q85 27 128.5 65t43.5 101q0 53 -42 95t-128 66.5t-212 24.5q-125 0 -225.5 -29t-167.5 -73v-96q67 53 168 86t226 33q90 0 154.5 -15.5t98 -42.5t33.5 -61q0 -33 -28.5 -59
t-84.5 -41.5t-136 -15.5h-261v-80h261q135 0 205 -34.5t70 -100.5q0 -67 -82 -105t-230 -38q-134 0 -238 29t-161 74v-89q58 -41 164.5 -66.5z" />
    <glyph glyph-name="uni0418" unicode="&#x418;" horiz-adv-x="1047" 
d="M205 90h20l569 630h143v-720h-95v629h-22l-568 -629h-142v720h95v-630z" />
    <glyph glyph-name="uni0419" unicode="&#x419;" horiz-adv-x="1047" 
d="M646 893.5q-16 -21.5 -48 -35t-77 -13.5t-77 13.5t-48 35t-16 44.5h-75q0 -39 25 -75t74 -58t117 -22t117 22t74 58t25 75h-75q0 -23 -16 -44.5zM205 90h20l569 630h143v-720h-95v629h-22l-568 -629h-142v720h95v-630z" />
    <glyph glyph-name="uni041A" unicode="&#x41a;" horiz-adv-x="973" 
d="M205 424h20l689 311v-83l-610 -274v-16l669 -362h-178l-571 309h-19v-309h-95v720h95v-296z" />
    <glyph glyph-name="uni041B" unicode="&#x41b;" horiz-adv-x="984" 
d="M67 69q46 0 77 38.5t48 140t17 283.5v189h665v-720h-95v640h-481v-122q0 -195 -22 -311t-70.5 -169t-129.5 -53q-21 0 -36 3v83q6 -2 27 -2z" />
    <glyph glyph-name="uni041C" unicode="&#x41c;" horiz-adv-x="1256" 
d="M625 89h22l337 631h162v-720h-95v629h-24l-335 -629h-121l-345 629h-24v-629h-92v720h169z" />
    <glyph glyph-name="uni041D" unicode="&#x41d;" horiz-adv-x="1045" 
d="M205 421h635v299h95v-720h-95v341h-635v-341h-95v720h95v-299z" />
    <glyph glyph-name="uni041E" unicode="&#x41e;" horiz-adv-x="1096" 
d="M289.5 685.5q-113.5 -49.5 -176.5 -135t-63 -190.5q0 -109 63 -194t176 -133t259 -48t259 48t176 133t63 194q0 105 -63 190.5t-176.5 135t-258.5 49.5t-258.5 -49.5zM757 613.5q92 -39.5 143 -106.5t51 -147q0 -79 -51 -146.5t-143 -107t-209 -39.5t-209 39.5t-143 107
t-51 146.5q0 80 51 147t143 106.5t209 39.5t209 -39.5z" />
    <glyph glyph-name="uni041F" unicode="&#x41f;" horiz-adv-x="1020" 
d="M910 0h-95v640h-610v-640h-95v720h800v-720z" />
    <glyph glyph-name="uni0420" unicode="&#x420;" horiz-adv-x="939" 
d="M827 659q77 -61 77 -154q0 -89 -77.5 -152t-267.5 -63h-354v-290h-95v720h449q191 0 268 -61zM748.5 407q58.5 37 58.5 98t-58.5 98t-189.5 37h-354v-270h354q131 0 189.5 37z" />
    <glyph glyph-name="uni0421" unicode="&#x421;" horiz-adv-x="962" 
d="M772 92.5q-84 -25.5 -184 -25.5q-138 0 -238.5 39.5t-152.5 106.5t-52 147t52 146.5t152.5 106t238.5 39.5q101 0 181.5 -26.5t133.5 -69.5v102q-58 37 -138.5 56.5t-176.5 19.5q-164 0 -286 -50.5t-187 -136t-65 -187.5q0 -109 64.5 -194.5t186 -133.5t287.5 -48
q99 0 182.5 19.5t141.5 58.5v103q-56 -47 -140 -72.5z" />
    <glyph glyph-name="uni0422" unicode="&#x422;" horiz-adv-x="905" 
d="M890 640h-390v-640h-95v640h-390v80h875v-80z" />
    <glyph glyph-name="uni0423" unicode="&#x423;" horiz-adv-x="872" 
d="M468 280l304 440h100l-497 -720h-100l126 183l-401 537h111l328 -440h29z" />
    <glyph glyph-name="uni0424" unicode="&#x424;" horiz-adv-x="1197" 
d="M82 509.5q57 65.5 176 107.5t294 47v66h95v-66q175 -5 293.5 -46.5t175 -107.5t56.5 -144t-57 -143.5t-175 -107.5t-293 -47v-78h-95v78q-175 6 -294 48t-176 107.5t-57 142.5q0 78 57 143.5zM166 263.5q45 -47.5 141.5 -79t244.5 -36.5v436q-148 -5 -244.5 -36.5
t-141.5 -79t-45 -102.5t45 -102.5zM891.5 183.5q96.5 31.5 140.5 79.5t44 103t-44 103t-140.5 79.5t-244.5 35.5v-436q148 4 244.5 35.5z" />
    <glyph glyph-name="uni0425" unicode="&#x425;" horiz-adv-x="988" 
d="M62 623v112l416 -330h24l409 330v-100l-346 -279v-20l423 -336h-141l-354 281h-21l-348 -281h-124l409 330v18z" />
    <glyph glyph-name="uni0426" unicode="&#x426;" horiz-adv-x="975" 
d="M950 -140v220h-115v640h-95v-640h-535v640h-95v-720h755v-140h85z" />
    <glyph glyph-name="uni0427" unicode="&#x427;" horiz-adv-x="935" 
d="M195 429q35 -49 103.5 -68t180.5 -19q150 0 251 28v350h95v-720h-95v287q-112 -28 -258 -28q-212 0 -309.5 69.5t-97.5 215.5v176h95v-153q0 -89 35 -138z" />
    <glyph glyph-name="uni0428" unicode="&#x428;" horiz-adv-x="1303" 
d="M205 80h399v640h95v-640h399v640h95v-720h-1083v720h95v-640z" />
    <glyph glyph-name="uni0429" unicode="&#x429;" horiz-adv-x="1333" 
d="M205 80h399v640h95v-640h399v640h95v-640h115v-220h-85v140h-1113v720h95v-640z" />
    <glyph glyph-name="uni042A" unicode="&#x42a;" horiz-adv-x="1039" 
d="M917 63.5q77 63.5 77 159.5q0 97 -77 160t-268 63h-334v274h-315v-80h220v-640h429q191 0 268 63.5zM838.5 327q58.5 -39 58.5 -104t-58.5 -104t-189.5 -39h-334v286h334q131 0 189.5 -39z" />
    <glyph glyph-name="uni042B" unicode="&#x42b;" horiz-adv-x="1244" 
d="M807 63.5q77 63.5 77 159.5q0 97 -77 160t-268 63h-334v274h-95v-720h429q191 0 268 63.5zM1039 0v720h95v-720h-95zM728.5 327q58.5 -39 58.5 -104t-58.5 -104t-189.5 -39h-334v286h334q131 0 189.5 -39z" />
    <glyph glyph-name="uni042C" unicode="&#x42c;" horiz-adv-x="929" 
d="M807 63.5q77 63.5 77 159.5q0 97 -77 160t-268 63h-334v274h-95v-720h429q191 0 268 63.5zM728.5 327q58.5 -39 58.5 -104t-58.5 -104t-189.5 -39h-334v286h334q131 0 189.5 -39z" />
    <glyph glyph-name="uni042D" unicode="&#x42d;" horiz-adv-x="972" 
d="M205 4.5q86 -19.5 188 -19.5q158 0 277.5 44.5t185.5 129t66 201.5q0 116 -68 201t-188 129.5t-273 44.5q-195 0 -329 -75v-102q54 42 137 68.5t192 26.5q172 0 287 -60.5t140 -172.5h-600v-80h606q-5 -87 -60 -148.5t-150.5 -93t-222.5 -31.5q-106 0 -193 25t-145 70
v-102q64 -36 150 -55.5z" />
    <glyph glyph-name="uni042E" unicode="&#x42e;" horiz-adv-x="1380" 
d="M359 421q17 91 80 162t166.5 111.5t236.5 40.5q147 0 258 -49.5t170.5 -135t59.5 -190.5q0 -109 -59.5 -194.5t-170 -133t-258.5 -47.5q-144 0 -252.5 45t-169 125.5t-66.5 185.5h-149v-341h-95v720h95v-299h154zM496.5 213.5q47.5 -66.5 137 -105t208.5 -38.5
t208.5 38.5t137 105t47.5 146.5q0 81 -47.5 147t-136.5 104.5t-209 38.5t-209 -38.5t-136.5 -104.5t-47.5 -147q0 -80 47.5 -146.5z" />
    <glyph glyph-name="uni042F" unicode="&#x42f;" horiz-adv-x="1000" 
d="M238 339.5q-75 31.5 -103.5 78t-28.5 96.5t28.5 96.5t103.5 78t203 31.5h449v-720h-95v308h-135l-462 -307h-148l443 293v14h-52q-128 0 -203 31.5zM257 425q54 -37 184 -37h354v252h-354q-130 0 -184 -37t-54 -89t54 -89z" />
    <glyph glyph-name="uni0430" unicode="&#x430;" horiz-adv-x="794" 
d="M115 23.5q75 -38.5 211 -38.5q113 0 188.5 30t126.5 86v-101h88v327q0 107 -96 157.5t-261 50.5q-86 0 -165 -17.5t-136 -54.5v-92q51 40 129 63.5t169 23.5q137 0 206 -29t69 -76q0 -23 -24.5 -34t-72 -15t-154.5 -8l-85 -4q-141 -7 -204.5 -43.5t-63.5 -105.5
q0 -81 75 -119.5zM600.5 148.5q-40.5 -42.5 -109.5 -64.5t-153 -22q-202 0 -202 81q0 40 46 58t143 21q15 0 22 1q133 4 199.5 11t94.5 28v-11q0 -60 -40.5 -102.5z" />
    <glyph glyph-name="uni0431" unicode="&#x431;" horiz-adv-x="851" 
d="M636.5 470.5q82.5 -34.5 128.5 -94t46 -131.5t-48.5 -131.5t-134.5 -94t-195 -34.5q-116 0 -202.5 36.5t-132.5 109.5q-23 37 -33 83t-10 105q0 130 41 212.5t137 125t261 44.5q97 2 160 6t99 13v-77q-33 -9 -92.5 -13t-166.5 -6q-133 -2 -209.5 -30.5t-108.5 -80.5
t-36 -132q102 124 308 124q106 0 188.5 -34.5zM582 86q65 24 101 65.5t36 93.5t-36 93.5t-101 65.5t-149 24t-149 -24t-101 -65.5t-36 -93.5t36 -93.5t101 -65.5t149 -24t149 24z" />
    <glyph glyph-name="uni0432" unicode="&#x432;" horiz-adv-x="776" 
d="M643.5 483q58.5 -37 58.5 -101q0 -34 -20.5 -62.5t-58.5 -48.5q46 -13 77 -43t31 -76q0 -42 -26 -76.5t-80.5 -55t-134.5 -20.5h-410v520h393q112 0 170.5 -37zM577.5 320.5q30.5 20.5 30.5 52.5q0 72 -129 72h-311v-145h311q68 0 98.5 20.5zM637 152q0 34 -34.5 53.5
t-108.5 19.5h-326v-150h326q143 0 143 77z" />
    <glyph glyph-name="uni0433" unicode="&#x433;" horiz-adv-x="628" 
d="M598 445h-428v-445h-90v520h518v-75z" />
    <glyph glyph-name="uni0434" unicode="&#x434;" horiz-adv-x="831" 
d="M138.5 146.5q16.5 42.5 27.5 125.5t11 216v32h539v-445h105v-205h-80v130h-651v-130h-80v205h88q24 29 40.5 71.5zM195 75h431v370h-368q-6 -268 -63 -370z" />
    <glyph glyph-name="uni0435" unicode="&#x435;" horiz-adv-x="820" 
d="M148 54q108 -69 319 -69q75 0 148.5 15.5t126.5 42.5v83q-52 -31 -124 -48.5t-151 -17.5q-163 0 -248 46.5t-88 146.5h649v12q0 74 -46.5 136t-130.5 98t-193 36q-108 0 -192.5 -36.5t-131 -99.5t-46.5 -139q0 -137 108 -206zM236 424q71 41 174 41q106 0 177 -41
t93 -106h-539q24 65 95 106z" />
    <glyph glyph-name="uni0436" unicode="&#x436;" horiz-adv-x="1018" 
d="M79 448v87l361 -226h18v211h92v-211h18l361 226v-81l-272 -170v-15l361 -269h-130l-315 235h-23v-235h-92v235h-23l-315 -235h-120l352 262v16z" />
    <glyph glyph-name="uni0437" unicode="&#x437;" horiz-adv-x="740" 
d="M176.5 5.5q73.5 -20.5 173.5 -20.5q151 0 248 44.5t97 130.5q0 87 -102 117q34 16 56.5 45.5t22.5 60.5q0 48 -42.5 82t-115.5 52t-165 18q-98 0 -174 -20t-112 -52v-79q39 35 115 56.5t171 21.5q103 0 166.5 -20t63.5 -61q0 -30 -33.5 -51t-78.5 -21h-296v-75h292
q142 0 142 -74q0 -50 -71.5 -76t-183.5 -26q-182 0 -295 81v-78q48 -35 121.5 -55.5z" />
    <glyph glyph-name="uni0438" unicode="&#x438;" horiz-adv-x="779" 
d="M170 90h22l375 430h132v-520h-90v430h-23l-375 -430h-131v520h90v-430z" />
    <glyph glyph-name="uni0439" unicode="&#x439;" horiz-adv-x="779" 
d="M512 701.5q-16 -24.5 -48.5 -39.5t-77.5 -15t-77.5 15t-48.5 39.5t-16 52.5h-79q0 -44 25.5 -83.5t76 -63.5t119.5 -24t119.5 24t76 63.5t25.5 83.5h-79q0 -28 -16 -52.5zM170 90h22l375 430h132v-520h-90v430h-23l-375 -430h-131v520h90v-430z" />
    <glyph glyph-name="uni043A" unicode="&#x43a;" horiz-adv-x="730" 
d="M170 320h22l468 215v-77l-391 -180v-19l461 -259h-158l-379 213h-23v-213h-90v520h90v-200z" />
    <glyph glyph-name="uni043B" unicode="&#x43b;" horiz-adv-x="771" 
d="M49 63q50 0 76.5 96t26.5 329v32h539v-520h-90v447h-369q-2 -179 -21.5 -279.5t-58 -141.5t-102.5 -41q-17 0 -25 2v79q9 -3 24 -3z" />
    <glyph glyph-name="uni043C" unicode="&#x43c;" horiz-adv-x="972" 
d="M488 76h19l231 444h154v-520h-91v441h-19l-229 -441h-117l-244 441h-20v-441h-92v520h162z" />
    <glyph glyph-name="uni043D" unicode="&#x43d;" horiz-adv-x="790" 
d="M170 312h450v208h90v-520h-90v237h-450v-237h-90v520h90v-208z" />
    <glyph glyph-name="uni043E" unicode="&#x43e;" horiz-adv-x="836" 
d="M223 498.5q-86 -36.5 -134.5 -99.5t-48.5 -139q0 -77 48.5 -140t134.5 -99t195 -36t195 36.5t134.5 99.5t48.5 139t-48.5 139t-134.5 99.5t-195 36.5t-195 -36.5zM567 432q65 -26 101 -71t36 -101t-36 -101t-101 -71t-149 -26t-149 26t-101 71t-36 101t36 101t101 71
t149 26t149 -26z" />
    <glyph glyph-name="uni043F" unicode="&#x43f;" horiz-adv-x="760" 
d="M680 0h-90v445h-420v-445h-90v520h600v-520z" />
    <glyph glyph-name="uni0440" unicode="&#x440;" horiz-adv-x="859" 
d="M296 505.5q73 29.5 163 29.5q107 0 189 -36.5t126.5 -99t44.5 -139.5q0 -71 -46 -134.5t-129.5 -102t-189.5 -38.5q-90 0 -161 29t-123 77v-291h-90v720h90v-92q53 48 126 77.5zM191 159q36 -45 101 -71t149 -26t149 26t101 71t36 101t-36 101t-101 71t-149 26t-149 -26
t-101 -71t-36 -101t36 -101z" />
    <glyph glyph-name="uni0441" unicode="&#x441;" horiz-adv-x="708" 
d="M570 76.5q-58 -14.5 -125 -14.5q-94 0 -165 25t-109.5 70t-38.5 103t38.5 103t109.5 70t165 25q137 0 218 -59v89q-89 47 -218 47q-118 0 -210 -36t-143.5 -99t-51.5 -140q0 -82 50.5 -144.5t142.5 -96.5t212 -34q63 0 121 11.5t102 34.5v90q-40 -30 -98 -44.5z" />
    <glyph glyph-name="uni0442" unicode="&#x442;" horiz-adv-x="702" 
d="M682 445h-286v-445h-90v445h-286v75h662v-75z" />
    <glyph glyph-name="uni0443" unicode="&#x443;" horiz-adv-x="717" 
d="M391 125l236 395h90l-430 -720h-90l129 217l-326 503h107l256 -395h28z" />
    <glyph glyph-name="uni0444" unicode="&#x444;" horiz-adv-x="958" 
d="M88.5 126q48.5 -60 137.5 -97t208 -43v-186h90v186q119 6 208 43t137.5 97t48.5 134t-48.5 134t-137.5 97t-208 43v186h-90v-186q-119 -6 -208 -43t-137.5 -97t-48.5 -134t48.5 -134zM163 360q38 42 108 68t163 31v-398q-95 5 -164.5 32.5t-107 72t-37.5 99.5q0 53 38 95
zM688.5 426.5q69.5 -27.5 107 -72t37.5 -99.5q0 -53 -38 -95t-108 -68t-163 -31v398q95 -5 164.5 -32.5z" />
    <glyph glyph-name="uni0445" unicode="&#x445;" horiz-adv-x="788" 
d="M53 439v96l323 -235h21l311 235v-85l-251 -190v-19l331 -241h-132l-266 194h-20l-257 -194h-113l310 234v18z" />
    <glyph glyph-name="uni0446" unicode="&#x446;" horiz-adv-x="795" 
d="M785 -130v205h-105v445h-90v-445h-420v445h-90v-520h625v-130h80z" />
    <glyph glyph-name="uni0447" unicode="&#x447;" horiz-adv-x="709" 
d="M158.5 328q23.5 -32 68.5 -44.5t119 -12.5q52 0 109.5 6t83.5 15v228h90v-520h-90v217q-30 -8 -87.5 -14.5t-109.5 -6.5q-148 0 -222.5 48.5t-74.5 156.5v119h90v-103q0 -57 23.5 -89z" />
    <glyph glyph-name="uni0448" unicode="&#x448;" horiz-adv-x="1030" 
d="M170 75h300v445h90v-445h300v445h90v-520h-870v520h90v-445z" />
    <glyph glyph-name="uni0449" unicode="&#x449;" horiz-adv-x="1065" 
d="M170 75h300v445h90v-445h300v445h90v-445h105v-205h-80v130h-895v520h90v-445z" />
    <glyph glyph-name="uni044A" unicode="&#x44a;" horiz-adv-x="840" 
d="M559 329q139 0 197.5 -47t58.5 -117t-58.5 -117.5t-197.5 -47.5h-379v445h-170v75h260v-191h289zM722 165q0 89 -163 89h-289v-179h289q163 0 163 90z" />
    <glyph glyph-name="uni044B" unicode="&#x44b;" horiz-adv-x="970" 
d="M656.5 282q58.5 -47 58.5 -117t-58.5 -117.5t-197.5 -47.5h-379v520h90v-191h289q139 0 197.5 -47zM800 520h90v-520h-90v520zM622 165q0 89 -163 89h-289v-179h289q163 0 163 90z" />
    <glyph glyph-name="uni044C" unicode="&#x44c;" horiz-adv-x="740" 
d="M656.5 282q58.5 -47 58.5 -117t-58.5 -117.5t-197.5 -47.5h-379v520h90v-191h289q139 0 197.5 -47zM622 165q0 89 -163 89h-289v-179h289q163 0 163 90z" />
    <glyph glyph-name="uni044D" unicode="&#x44d;" horiz-adv-x="748" 
d="M149.5 -3q63.5 -12 137.5 -12q188 0 304.5 69t116.5 206q0 86 -55 148t-151 94.5t-215 32.5q-74 0 -136 -12.5t-106 -34.5v-87q40 29 102 45t140 16q127 0 215.5 -39.5t110.5 -115.5h-393v-75h398q-14 -84 -105 -129t-226 -45q-78 0 -141.5 16t-105.5 45v-88
q46 -22 109.5 -34z" />
    <glyph glyph-name="uni044E" unicode="&#x44e;" horiz-adv-x="1048" 
d="M328.5 108q48.5 -57 129.5 -90t182 -33q106 0 190 36.5t131 99.5t47 139t-47 139t-131 99.5t-190 36.5q-94 0 -171 -29t-126.5 -79.5t-64.5 -114.5h-108v208h-90v-520h90v237h103q7 -72 55.5 -129zM398.5 361q34.5 45 97.5 71t144 26t144 -26t97.5 -71t34.5 -101
t-34.5 -101t-97.5 -71t-144 -26t-144 26t-97.5 71t-34.5 101t34.5 101z" />
    <glyph glyph-name="uni044F" unicode="&#x44f;" horiz-adv-x="788" 
d="M124.5 259q-55.5 43 -55.5 108q0 66 56.5 109.5t186.5 43.5h396v-520h-90v215h-165l-301 -215h-122l278 199v16q-128 1 -183.5 44zM312 286h306v163h-306q-153 0 -153 -82q0 -81 153 -81z" />
    <glyph glyph-name="uni0451" unicode="&#x451;" horiz-adv-x="820" 
d="M240.5 715q-20.5 -17 -20.5 -42t20.5 -41.5t50.5 -16.5t50.5 16.5t20.5 41.5t-20.5 42t-50.5 17t-50.5 -17zM490.5 715q-20.5 -17 -20.5 -42t20.5 -41.5t50.5 -16.5t50.5 16.5t20.5 41.5t-20.5 42t-50.5 17t-50.5 -17zM148 54q108 -69 319 -69q75 0 148.5 15.5
t126.5 42.5v83q-52 -31 -124 -48.5t-151 -17.5q-163 0 -248 46.5t-88 146.5h649v12q0 74 -46.5 136t-130.5 98t-193 36q-108 0 -192.5 -36.5t-131 -99.5t-46.5 -139q0 -137 108 -206zM236 424q71 41 174 41q106 0 177 -41t93 -106h-539q24 65 95 106z" />
    <glyph glyph-name="uni0452" unicode="&#x452;" 
d="M170 720v-60h185v-70h-185v-170q43 50 109.5 82.5t158.5 32.5q128 0 206 -65t78 -204v-270q0 -95 -56.5 -150.5t-152.5 -55.5q-39 0 -71 9.5t-54 25.5v85q24 -20 54.5 -31.5t59.5 -11.5q130 0 130 129v255q0 107 -54.5 157t-161.5 50q-106 0 -176 -50t-70 -171v-237h-90
v590h-70v70h70v60h90z" />
    <glyph glyph-name="uni0453" unicode="&#x453;" horiz-adv-x="628" 
d="M293 587h95l175 170h-112zM598 445h-428v-445h-90v520h518v-75z" />
    <glyph glyph-name="uni0454" unicode="&#x454;" horiz-adv-x="748" 
d="M602.5 74q-63.5 -16 -141.5 -16q-135 0 -226 45t-105 129h398v75h-393q22 76 110.5 115.5t215.5 39.5q78 0 140 -16t102 -45v87q-44 22 -106 34.5t-136 12.5q-119 0 -215 -32.5t-151 -94.5t-55 -148q0 -137 116.5 -206t304.5 -69q74 0 137.5 12t109.5 34v88
q-42 -29 -105.5 -45z" />
    <glyph glyph-name="uni0455" unicode="&#x455;" horiz-adv-x="711" 
d="M163.5 1q78.5 -16 168.5 -16q104 0 181 20.5t117.5 58.5t40.5 87q0 43 -27 70t-89.5 44.5t-175.5 30.5q-104 12 -154 20.5t-72.5 22t-22.5 36.5q0 24 31 44t87.5 31.5t130.5 11.5q81 0 149 -13.5t116 -40.5v78q-33 22 -102.5 35.5t-162.5 13.5q-104 0 -181 -22
t-117.5 -60t-40.5 -84q0 -42 29.5 -69.5t91.5 -44.5t165 -28q106 -12 157.5 -21t73.5 -22t22 -35q0 -39 -64 -64t-175 -25q-94 0 -173 16.5t-122 42.5v-81q40 -21 118.5 -37z" />
    <glyph glyph-name="uni0456" unicode="&#x456;" horiz-adv-x="250" 
d="M71 715q-21 -17 -21 -42t21 -41.5t54 -16.5t54 16.5t21 41.5t-21 42t-54 17t-54 -17zM80 520h90v-520h-90v520z" />
    <glyph glyph-name="uni0457" unicode="&#x457;" horiz-adv-x="250" 
d="M22 631.5q16 -16.5 40 -16.5t40.5 16.5t16.5 41.5t-16.5 42t-40.5 17t-40 -17t-16 -42t16 -41.5zM147.5 631.5q16.5 -16.5 40.5 -16.5q23 0 39.5 16.5t16.5 41.5t-16.5 42t-39.5 17q-24 0 -40.5 -17t-16.5 -42t16.5 -41.5zM80 520h90v-520h-90v520z" />
    <glyph glyph-name="uni0458" unicode="&#x458;" horiz-adv-x="250" 
d="M71 715q-21 -17 -21 -42t21 -41.5t54 -16.5t54 16.5t21 41.5t-21 42t-54 17t-54 -17zM113.5 -154.5q-56.5 -55.5 -152.5 -55.5q-39 0 -71 9.5t-54 25.5v85q24 -20 54.5 -31.5t59.5 -11.5q130 0 130 129v524h90v-524q0 -95 -56.5 -150.5z" />
    <glyph glyph-name="uni0459" unicode="&#x459;" horiz-adv-x="1166" 
d="M49 63q50 0 76.5 96t26.5 329v32h474v-191h259q139 0 197.5 -47t58.5 -117t-58.5 -117.5t-197.5 -47.5h-349v445h-303q-2 -178 -21.5 -278t-58.5 -141t-103 -41q-17 0 -25 2v79q9 -3 24 -3zM1048 165q0 89 -163 89h-259v-179h259q163 0 163 90z" />
    <glyph glyph-name="uni045A" unicode="&#x45a;" horiz-adv-x="1135" 
d="M535 314v206h90v-206h229q139 0 197.5 -44t58.5 -113t-58.5 -113t-197.5 -44h-319v239h-365v-239h-90v520h90v-206h365zM979.5 95.5q37.5 20.5 37.5 61.5t-37.5 61.5t-125.5 20.5h-229v-164h229q88 0 125.5 20.5z" />
    <glyph glyph-name="uni045B" unicode="&#x45b;" 
d="M170 720v-60h185v-70h-185v-171q42 51 109 83.5t159 32.5q128 0 206 -65t78 -204v-266h-90v251q0 107 -54.5 157t-161.5 50q-106 0 -176 -50t-70 -171v-237h-90v590h-70v70h70v60h90z" />
    <glyph glyph-name="uni045C" unicode="&#x45c;" horiz-adv-x="730" 
d="M296 587h95l175 170h-112zM170 320h22l468 215v-77l-391 -180v-19l461 -259h-158l-379 213h-23v-213h-90v520h90v-200z" />
    <glyph glyph-name="uni045E" unicode="&#x45e;" horiz-adv-x="717" 
d="M489 702.5q-16 -24.5 -48.5 -39.5t-77.5 -15t-77.5 15t-48.5 39.5t-16 52.5h-79q0 -44 25.5 -83.5t76 -63.5t119.5 -24t119.5 24t76 63.5t25.5 83.5h-79q0 -28 -16 -52.5zM391 125l236 395h90l-430 -720h-90l129 217l-326 503h107l256 -395h28z" />
    <glyph glyph-name="uni045F" unicode="&#x45f;" horiz-adv-x="755" 
d="M418 -130v130h257v520h-90v-445h-415v445h-90v-520h258v-130h80z" />
    <glyph glyph-name="uni0490" unicode="&#x490;" horiz-adv-x="810" 
d="M705 870h85v-230h-585v-640h-95v720h595v150z" />
    <glyph glyph-name="uni0491" unicode="&#x491;" horiz-adv-x="628" 
d="M518 628h80v-183h-428v-445h-90v520h438v108z" />
    <glyph glyph-name="uni0492" unicode="&#x492;" horiz-adv-x="825" 
d="M125 720h680v-80h-585v-231h265v-76h-265v-333h-95v333h-90v76h90v311z" />
    <glyph glyph-name="uni0493" unicode="&#x493;" horiz-adv-x="653" 
d="M105 520h518v-75h-428v-155h210v-70h-210v-220h-90v220h-70v70h70v230z" />
    <glyph glyph-name="uni0496" unicode="&#x496;" horiz-adv-x="1292" 
d="M45 641v94l525 -335h21v320h95v-320h21l525 335v-91l-428 -273v-17l370 -274h118v-220h-85v140h-71l-433 323h-17v-323h-95v323h-19l-433 -323h-139l474 351v16z" />
    <glyph glyph-name="uni0497" unicode="&#x497;" horiz-adv-x="1023" 
d="M79 448v87l361 -226h18v211h92v-211h18l361 226v-81l-272 -170v-15l260 -194h106v-205h-80v130h-55l-315 235h-23v-235h-92v235h-23l-315 -235h-120l352 262v16z" />
    <glyph glyph-name="uni0498" unicode="&#x498;" horiz-adv-x="916" 
d="M199.5 14.5q92.5 -24.5 205.5 -28.5v-126h85v126q177 5 274 63t97 157q0 69 -53 114.5t-145 62.5q85 27 128.5 65t43.5 101q0 53 -42 95t-128 66.5t-212 24.5q-125 0 -225.5 -29t-167.5 -73v-96q67 53 168 86t226 33q90 0 154.5 -15.5t98 -42.5t33.5 -61q0 -33 -28.5 -59
t-84.5 -41.5t-136 -15.5h-261v-80h261q135 0 205 -34.5t70 -100.5q0 -67 -82 -105t-230 -38q-134 0 -238 29t-161 74v-89q52 -38 144.5 -62.5z" />
    <glyph glyph-name="uni0499" unicode="&#x499;" horiz-adv-x="740" 
d="M335 -15v-115h80v117q126 10 203 53.5t77 119.5q0 87 -102 117q34 16 56.5 45.5t22.5 60.5q0 48 -42.5 82t-115.5 52t-165 18q-98 0 -174 -20t-112 -52v-79q39 35 115 56.5t171 21.5q103 0 166.5 -20t63.5 -61q0 -30 -33.5 -51t-78.5 -21h-296v-75h292q142 0 142 -74
q0 -50 -71.5 -76t-183.5 -26q-182 0 -295 81v-78q102 -73 280 -76z" />
    <glyph glyph-name="uni049A" unicode="&#x49a;" horiz-adv-x="993" 
d="M205 424h20l689 311v-81l-601 -271v-21l555 -282h125v-220h-85v140h-65l-614 313h-24v-313h-95v720h95v-296z" />
    <glyph glyph-name="uni049B" unicode="&#x49b;" horiz-adv-x="742" 
d="M170 320h22l468 215v-77l-387 -178v-21l360 -184h109v-205h-80v130h-55l-411 213h-26v-213h-90v520h90v-200z" />
    <glyph glyph-name="uni049C" unicode="&#x49c;" horiz-adv-x="1150" 
d="M205 407h77v154h77v-154h45l687 328v-83l-570 -271v-19l629 -362h-169l-561 327h-61v-176h-77v176h-77v-327h-95v720h95v-313z" />
    <glyph glyph-name="uni049D" unicode="&#x49d;" horiz-adv-x="891" 
d="M170 306h66v125h72v-125h49l464 229v-76l-360 -178v-22l430 -259h-157l-379 231h-47v-128h-72v128h-66v-231h-90v520h90v-214z" />
    <glyph glyph-name="uni04A0" unicode="&#x4a0;" horiz-adv-x="1263" 
d="M495 424h20l689 311v-83l-610 -274v-16l669 -362h-178l-571 309h-19v-309h-95v640h-400v80h495v-296z" />
    <glyph glyph-name="uni04A1" unicode="&#x4a1;" horiz-adv-x="958" 
d="M398 320h22l468 215v-77l-391 -180v-19l461 -259h-158l-379 213h-23v-213h-90v445h-308v75h398v-200z" />
    <glyph glyph-name="uni04A2" unicode="&#x4a2;" horiz-adv-x="1075" 
d="M205 421h635v299h95v-640h115v-220h-85v140h-125v341h-635v-341h-95v720h95v-299z" />
    <glyph glyph-name="uni04A3" unicode="&#x4a3;" horiz-adv-x="825" 
d="M170 312h450v208h90v-445h105v-205h-80v130h-115v237h-450v-237h-90v520h90v-208z" />
    <glyph glyph-name="uni04AA" unicode="&#x4aa;" horiz-adv-x="962" 
d="M110 178q60 -82 169 -132t251 -59v-127h85v125q191 7 297 78v103q-56 -47 -140 -72.5t-184 -25.5q-129 0 -230 40t-157 107t-56 146t56 146t157 106.5t230 39.5q101 0 181.5 -26.5t133.5 -69.5v102q-58 37 -138.5 56.5t-176.5 19.5q-155 0 -278 -51t-191.5 -137
t-68.5 -186q0 -101 60 -183z" />
    <glyph glyph-name="uni04AB" unicode="&#x4ab;" horiz-adv-x="708" 
d="M84.5 126q44.5 -59 123 -94.5t180.5 -44.5v-117h80v115q122 5 200 46v90q-40 -30 -98 -44.5t-125 -14.5q-89 0 -160.5 25.5t-112 70.5t-40.5 102t40.5 102t112 70.5t160.5 25.5q137 0 218 -59v89q-89 47 -218 47q-113 0 -206 -36t-146 -99t-53 -140q0 -75 44.5 -134z" />
    <glyph glyph-name="uni04AE" unicode="&#x4ae;" horiz-adv-x="901" 
d="M475 340l321 380h105l-393 -466v-254h-95v254l-413 466h116l337 -380h22z" />
    <glyph glyph-name="uni04AF" unicode="&#x4af;" horiz-adv-x="675" 
d="M362 129l223 391h90l-282 -495v-225h-90v223l-303 497h105l238 -391h19z" />
    <glyph glyph-name="uni04B0" unicode="&#x4b0;" horiz-adv-x="901" 
d="M475 340l321 380h105l-392 -464h176v-72h-177v-184h-95v184h-177v72h175l-411 464h116l337 -380h22z" />
    <glyph glyph-name="uni04B1" unicode="&#x4b1;" horiz-adv-x="675" 
d="M362 129l223 391h90l-255 -448h143v-72h-170v-200h-90v200h-172v72h142l-273 448h105l238 -391h19z" />
    <glyph glyph-name="uni04B2" unicode="&#x4b2;" horiz-adv-x="988" 
d="M62 623v112l416 -330h24l409 330v-100l-346 -279v-20l322 -256h100v-79l1 -1h-1v-140h-85v140h-55l-354 281h-21l-348 -281h-124l409 330v18z" />
    <glyph glyph-name="uni04B3" unicode="&#x4b3;" horiz-adv-x="789" 
d="M53 439v96l323 -235h21l311 235v-85l-251 -190v-19l225 -164h107v-207h-80v130h-53l-266 194h-20l-257 -194h-113l310 234v18z" />
    <glyph glyph-name="uni04B6" unicode="&#x4b6;" horiz-adv-x="965" 
d="M195 429q35 -49 103.5 -68t180.5 -19q150 0 251 28v350h95v-640h115v-220h-85v140h-125v289q-109 -30 -258 -30q-212 0 -309.5 69.5t-97.5 215.5v176h95v-153q0 -89 35 -138z" />
    <glyph glyph-name="uni04B7" unicode="&#x4b7;" horiz-adv-x="744" 
d="M158.5 328q23.5 -32 68.5 -44.5t119 -12.5q52 0 109.5 6t83.5 15v228h90v-443h105v-207h-80v130h-115v217q-30 -8 -87.5 -14.5t-109.5 -6.5q-148 0 -222.5 48.5t-74.5 156.5v119h90v-103q0 -57 23.5 -89z" />
    <glyph glyph-name="uni04B8" unicode="&#x4b8;" horiz-adv-x="935" 
d="M187 442q27 -47 81 -69.5t139 -28.5v157h82v-159q148 2 241 28v350h95v-720h-95v289q-106 -28 -241 -30v-168h-82v170q-178 10 -260 79t-82 204v176h95v-153q0 -78 27 -125z" />
    <glyph glyph-name="uni04B9" unicode="&#x4b9;" horiz-adv-x="709" 
d="M177 308q42 -32 131 -36v125h72v-125q48 2 93 7t66 13v228h90v-520h-90v217q-24 -7 -68.5 -12.5t-90.5 -7.5v-128h-72v128q-131 5 -197 53.5t-66 150.5v119h90v-103q0 -77 42 -109z" />
    <glyph glyph-name="uni04BA" unicode="&#x4ba;" horiz-adv-x="935" 
d="M740 291q-35 49 -103.5 68t-180.5 19q-150 0 -251 -28v-350h-95v720h95v-287q112 28 258 28q212 0 309.5 -69.5t97.5 -215.5v-176h-95v153q0 89 -35 138z" />
    <glyph glyph-name="uni04BB" unicode="&#x4bb;" 
d="M279 502.5q67 32.5 159 32.5q128 0 206 -65t78 -204v-266h-90v251q0 107 -54.5 157t-161.5 50q-106 0 -176 -50t-70 -171v-237h-90v720h90v-301q42 51 109 83.5z" />
    <glyph glyph-name="uni04C0" unicode="&#x4c0;" horiz-adv-x="315" 
d="M110 0v720h95v-720h-95z" />
    <glyph glyph-name="uni04C1" unicode="&#x4c1;" horiz-adv-x="1282" 
d="M767 893.5q-16 -21.5 -48 -35t-77 -13.5t-77 13.5t-48 35t-16 44.5h-75q0 -39 25 -75t74 -58t117 -22t117 22t74 58t25 75h-75q0 -23 -16 -44.5zM45 641v94l525 -335h21v320h95v-320h21l525 335v-91l-428 -273v-14l478 -357h-146l-429 323h-21v-323h-95v323h-22
l-430 -323h-139l474 353v14z" />
    <glyph glyph-name="uni04C2" unicode="&#x4c2;" horiz-adv-x="1018" 
d="M629 702.5q-16 -24.5 -48.5 -39.5t-77.5 -15t-77.5 15t-48.5 39.5t-16 52.5h-79q0 -44 25.5 -83.5t76 -63.5t119.5 -24t119.5 24t76 63.5t25.5 83.5h-79q0 -28 -16 -52.5zM79 448v87l361 -226h18v211h92v-211h18l361 226v-81l-272 -170v-15l361 -269h-130l-315 235h-23
v-235h-92v235h-23l-315 -235h-120l352 262v16z" />
    <glyph glyph-name="uni04CF" unicode="&#x4cf;" horiz-adv-x="250" 
d="M80 720h90v-720h-90v720z" />
    <glyph glyph-name="uni04D0" unicode="&#x4d0;" horiz-adv-x="1037" 
d="M645 893.5q-16 -21.5 -48 -35t-77 -13.5t-77 13.5t-48 35t-16 44.5h-75q0 -39 25 -75t74 -58t117 -22t117 22t74 58t25 75h-75q0 -23 -16 -44.5zM1058 0h-112l-131 209h-558l-133 -209h-103l459 720h125zM529 635l-221 -346h456l-218 346h-17z" />
    <glyph glyph-name="uni04D1" unicode="&#x4d1;" horiz-adv-x="794" 
d="M524 702.5q-16 -24.5 -48.5 -39.5t-77.5 -15t-77.5 15t-48.5 39.5t-16 52.5h-79q0 -44 25.5 -83.5t76 -63.5t119.5 -24t119.5 24t76 63.5t25.5 83.5h-79q0 -28 -16 -52.5zM115 23.5q75 -38.5 211 -38.5q113 0 188.5 30t126.5 86v-101h88v327q0 107 -96 157.5t-261 50.5
q-86 0 -165 -17.5t-136 -54.5v-92q51 40 129 63.5t169 23.5q137 0 206 -29t69 -76q0 -23 -24.5 -34t-72 -15t-154.5 -8l-85 -4q-141 -7 -204.5 -43.5t-63.5 -105.5q0 -81 75 -119.5zM600.5 148.5q-40.5 -42.5 -109.5 -64.5t-153 -22q-202 0 -202 81q0 40 46 58t143 21
q15 0 22 1q133 4 199.5 11t94.5 28v-11q0 -60 -40.5 -102.5z" />
    <glyph glyph-name="uni04D6" unicode="&#x4d6;" horiz-adv-x="935" 
d="M610 893.5q-16 -21.5 -48 -35t-77 -13.5t-77 13.5t-48 35t-16 44.5h-75q0 -39 25 -75t74 -58t117 -22t117 22t74 58t25 75h-75q0 -23 -16 -44.5zM865 640h-660v-219h570v-80h-570v-261h660v-80h-755v720h755v-80z" />
    <glyph glyph-name="uni04D7" unicode="&#x4d7;" horiz-adv-x="820" 
d="M540 702.5q-16 -24.5 -48.5 -39.5t-77.5 -15t-77.5 15t-48.5 39.5t-16 52.5h-79q0 -44 25.5 -83.5t76 -63.5t119.5 -24t119.5 24t76 63.5t25.5 83.5h-79q0 -28 -16 -52.5zM148 54q108 -69 319 -69q75 0 148.5 15.5t126.5 42.5v83q-52 -31 -124 -48.5t-151 -17.5
q-163 0 -248 46.5t-88 146.5h649v12q0 74 -46.5 136t-130.5 98t-193 36q-108 0 -192.5 -36.5t-131 -99.5t-46.5 -139q0 -137 108 -206zM236 424q71 41 174 41q106 0 177 -41t93 -106h-539q24 65 95 106z" />
    <glyph glyph-name="uni04D8" unicode="&#x4d8;" horiz-adv-x="1091" 
d="M108 180q63 -90 176.5 -142.5t258.5 -52.5q146 0 259 48t176 133t63 194q0 108 -62.5 192.5t-188 133.5t-308.5 49q-110 0 -207.5 -21t-159.5 -61v-103q60 47 153.5 73.5t213.5 26.5q149 0 251 -35t154 -96t58 -139h-900q0 -110 63 -200zM868 184q-54 -53 -138 -83.5
t-187 -30.5q-97 0 -178.5 31t-136 84t-75.5 118h786q-17 -66 -71 -119z" />
    <glyph glyph-name="uni04D9" unicode="&#x4d9;" horiz-adv-x="840" 
d="M87.5 120q47.5 -64 134 -99.5t198.5 -35.5t198.5 35t134 97.5t47.5 142.5q0 127 -110 201t-327 74q-82 0 -156.5 -15t-128.5 -43v-83q53 31 126 48.5t159 17.5q163 0 250 -48.5t95 -134.5h-668v-12q0 -81 47.5 -145zM608 97.5q-75 -42.5 -188 -42.5t-186 42.5t-94 114.5
h563q-20 -72 -95 -114.5z" />
    <glyph glyph-name="uni04E2" unicode="&#x4e2;" horiz-adv-x="1047" 
d="M350 817v70h320v-70h-320zM205 90h20l569 630h143v-720h-95v629h-22l-568 -629h-142v720h95v-630z" />
    <glyph glyph-name="uni04E3" unicode="&#x4e3;" horiz-adv-x="779" 
d="M221 635v70h320v-70h-320zM170 90h22l375 430h132v-520h-90v430h-23l-375 -430h-131v520h90v-430z" />
    <glyph glyph-name="uni04E6" unicode="&#x4e6;" horiz-adv-x="1096" 
d="M364.5 894q-20.5 -17 -20.5 -42t20.5 -41.5t50.5 -16.5t50.5 16.5t20.5 41.5t-20.5 42t-50.5 17t-50.5 -17zM622.5 894q-20.5 -17 -20.5 -42t20.5 -41.5t50.5 -16.5t50.5 16.5t20.5 41.5t-20.5 42t-50.5 17t-50.5 -17zM289.5 685.5q-113.5 -49.5 -176.5 -135t-63 -190.5
q0 -109 63 -194t176 -133t259 -48t259 48t176 133t63 194q0 105 -63 190.5t-176.5 135t-258.5 49.5t-258.5 -49.5zM757 613.5q92 -39.5 143 -106.5t51 -147q0 -79 -51 -146.5t-143 -107t-209 -39.5t-209 39.5t-143 107t-51 146.5q0 80 51 147t143 106.5t209 39.5t209 -39.5z
" />
    <glyph glyph-name="uni04E7" unicode="&#x4e7;" horiz-adv-x="836" 
d="M237.5 715q-20.5 -17 -20.5 -42t20.5 -41.5t50.5 -16.5t50.5 16.5t20.5 41.5t-20.5 42t-50.5 17t-50.5 -17zM487.5 715q-20.5 -17 -20.5 -42t20.5 -41.5t50.5 -16.5t50.5 16.5t20.5 41.5t-20.5 42t-50.5 17t-50.5 -17zM223 498.5q-86 -36.5 -134.5 -99.5t-48.5 -139
q0 -77 48.5 -140t134.5 -99t195 -36t195 36.5t134.5 99.5t48.5 139t-48.5 139t-134.5 99.5t-195 36.5t-195 -36.5zM567 432q65 -26 101 -71t36 -101t-36 -101t-101 -71t-149 -26t-149 26t-101 71t-36 101t36 101t101 71t149 26t149 -26z" />
    <glyph glyph-name="uni04E8" unicode="&#x4e8;" horiz-adv-x="1096" 
d="M113 166q63 -85 176 -133t259 -48t259 48t176 133t63 194q0 105 -63 190.5t-176.5 135t-258.5 49.5t-258.5 -49.5t-176.5 -135t-63 -190.5q0 -109 63 -194zM213.5 528q53.5 58 140 91.5t194.5 33.5t194.5 -33.5t140 -91.5t65.5 -130h-800q12 72 65.5 130zM881.5 192
q-53.5 -58 -140 -91.5t-193.5 -33.5t-193.5 33.5t-140 91.5t-66.5 129h800q-13 -71 -66.5 -129z" />
    <glyph glyph-name="uni04E9" unicode="&#x4e9;" horiz-adv-x="836" 
d="M88.5 120q48.5 -63 134.5 -99t195 -36t195 36.5t134.5 99.5t48.5 139t-48.5 139t-134.5 99.5t-195 36.5t-195 -36.5t-134.5 -99.5t-48.5 -139q0 -77 48.5 -140zM187 381q38 36 97.5 56.5t133.5 20.5t133.5 -20.5t97.5 -56.5t50 -83h-562q12 47 50 83zM651.5 141
q-37.5 -37 -98 -58t-135.5 -21t-135.5 21t-98 58t-48.5 85h564q-11 -48 -48.5 -85z" />
    <glyph glyph-name="uni04EE" unicode="&#x4ee;" horiz-adv-x="872" 
d="M291 817v70h320v-70h-320zM468 280l304 440h100l-497 -720h-100l126 183l-401 537h111l328 -440h29z" />
    <glyph glyph-name="uni04EF" unicode="&#x4ef;" horiz-adv-x="717" 
d="M195 635v70h320v-70h-320zM391 125l236 395h90l-430 -720h-90l129 217l-326 503h107l256 -395h28z" />
    <glyph glyph-name="uni04F2" unicode="&#x4f2;" horiz-adv-x="872" 
d="M310 790h94l149 140h-110zM498 790h94l149 140h-110zM468 280l304 440h100l-497 -720h-100l126 183l-401 537h111l328 -440h29z" />
    <glyph glyph-name="uni04F3" unicode="&#x4f3;" horiz-adv-x="717" 
d="M232 587h88l175 170h-105zM409 587h88l175 170h-105zM391 125l236 395h90l-430 -720h-90l129 217l-326 503h107l256 -395h28z" />
    <glyph glyph-name="Wgrave" unicode="&#x1e80;" horiz-adv-x="1355" 
d="M726 790h-100l-149 140h116zM379 90l236 630h150l235 -630h20l231 630h94l-264 -720h-150l-235 629h-21l-236 -629h-154l-275 720h107l241 -630h21z" />
    <glyph glyph-name="wgrave" unicode="&#x1e81;" horiz-adv-x="1045" 
d="M568 587h-99l-175 170h116zM297 90l174 430h115l176 -430h21l174 430h83l-211 -520h-115l-177 432h-19l-175 -432h-125l-213 520h95l176 -430h21z" />
    <glyph glyph-name="Wacute" unicode="&#x1e82;" horiz-adv-x="1355" 
d="M649 790h86l149 140h-102zM379 90l236 630h150l235 -630h20l231 630h94l-264 -720h-150l-235 629h-21l-236 -629h-154l-275 720h107l241 -630h21z" />
    <glyph glyph-name="wacute" unicode="&#x1e83;" horiz-adv-x="1045" 
d="M492 587h95l175 170h-112zM297 90l174 430h115l176 -430h21l174 430h83l-211 -520h-115l-177 432h-19l-175 -432h-125l-213 520h95l176 -430h21z" />
    <glyph glyph-name="Wdieresis" unicode="&#x1e84;" horiz-adv-x="1355" 
d="M507.5 894q-20.5 -17 -20.5 -42t20.5 -41.5t50.5 -16.5t50.5 16.5t20.5 41.5t-20.5 42t-50.5 17t-50.5 -17zM765.5 894q-20.5 -17 -20.5 -42t20.5 -41.5t50.5 -16.5t50.5 16.5t20.5 41.5t-20.5 42t-50.5 17t-50.5 -17zM379 90l236 630h150l235 -630h20l231 630h94
l-264 -720h-150l-235 629h-21l-236 -629h-154l-275 720h107l241 -630h21z" />
    <glyph glyph-name="wdieresis" unicode="&#x1e85;" horiz-adv-x="1045" 
d="M349.5 715q-20.5 -17 -20.5 -42t20.5 -41.5t50.5 -16.5t50.5 16.5t20.5 41.5t-20.5 42t-50.5 17t-50.5 -17zM599.5 715q-20.5 -17 -20.5 -42t20.5 -41.5t50.5 -16.5t50.5 16.5t20.5 41.5t-20.5 42t-50.5 17t-50.5 -17zM297 90l174 430h115l176 -430h21l174 430h83
l-211 -520h-115l-177 432h-19l-175 -432h-125l-213 520h95l176 -430h21z" />
    <glyph glyph-name="uni1E9E" unicode="&#x1e9e;" horiz-adv-x="985" 
d="M167.5 674q77.5 46 217.5 46h518v-129l-266 -110v-17q129 -10 213.5 -64.5t84.5 -167.5q0 -118 -92 -182.5t-253 -64.5q-85 0 -144 13t-114 38v94q43 -29 114 -46.5t149 -17.5q113 0 179.5 43t66.5 120q0 56 -33.5 91.5t-107 52.5t-195.5 17h-88v71l391 162v16h-438
q-95 0 -140 -28t-45 -102v-509h-95v521q0 107 77.5 153z" />
    <glyph glyph-name="Ygrave" unicode="&#x1ef2;" horiz-adv-x="901" 
d="M482 790h-100l-149 140h116zM475 340l321 380h105l-393 -466v-254h-95v254l-413 466h116l337 -380h22z" />
    <glyph glyph-name="ygrave" unicode="&#x1ef3;" horiz-adv-x="717" 
d="M416 587h-99l-175 170h116zM391 125l236 395h90l-430 -720h-90l129 217l-326 503h107l256 -395h28z" />
    <glyph glyph-name="uni2000" unicode="&#x2000;" horiz-adv-x="750" 
 />
    <glyph glyph-name="uni2001" unicode="&#x2001;" horiz-adv-x="1500" 
 />
    <glyph glyph-name="uni2002" unicode="&#x2002;" horiz-adv-x="750" 
 />
    <glyph glyph-name="uni2003" unicode="&#x2003;" horiz-adv-x="1500" 
 />
    <glyph glyph-name="uni2004" unicode="&#x2004;" horiz-adv-x="450" 
 />
    <glyph glyph-name="uni2005" unicode="&#x2005;" horiz-adv-x="270" 
 />
    <glyph glyph-name="uni2006" unicode="&#x2006;" horiz-adv-x="150" 
 />
    <glyph glyph-name="uni2007" unicode="&#x2007;" horiz-adv-x="300" 
 />
    <glyph glyph-name="uni2008" unicode="&#x2008;" horiz-adv-x="310" 
 />
    <glyph glyph-name="uni2009" unicode="&#x2009;" horiz-adv-x="220" 
 />
    <glyph glyph-name="uni200A" unicode="&#x200a;" horiz-adv-x="50" 
 />
    <glyph glyph-name="uni200B" unicode="&#x200b;" horiz-adv-x="0" 
 />
    <glyph glyph-name="endash" unicode="&#x2013;" horiz-adv-x="696" 
d="M656 238h-616v74h616v-74z" />
    <glyph glyph-name="emdash" unicode="&#x2014;" horiz-adv-x="1020" 
d="M980 238h-940v74h940v-74z" />
    <glyph glyph-name="quoteleft" unicode="&#x2018;" horiz-adv-x="275" 
d="M115 500h-110l156 220h84z" />
    <glyph glyph-name="quoteright" unicode="&#x2019;" horiz-adv-x="255" 
d="M95 500h-110l156 220h84z" />
    <glyph glyph-name="quotesinglbase" unicode="&#x201a;" horiz-adv-x="275" 
d="M135 100h110l-156 -220h-84z" />
    <glyph glyph-name="quotedblleft" unicode="&#x201c;" horiz-adv-x="398" 
d="M115 720h102l-156 -220h-76zM266 720h102l-156 -220h-76z" />
    <glyph glyph-name="quotedblright" unicode="&#x201d;" horiz-adv-x="398" 
d="M115 720h102l-156 -220h-76zM266 720h102l-156 -220h-76z" />
    <glyph glyph-name="quotedblbase" unicode="&#x201e;" horiz-adv-x="418" 
d="M115 100h102l-156 -220h-76zM266 100h102l-156 -220h-76z" />
    <glyph glyph-name="dagger" unicode="&#x2020;" horiz-adv-x="453" 
d="M20 486v74h165v160h83v-160h165v-74h-165v-486h-83v486h-165z" />
    <glyph glyph-name="daggerdbl" unicode="&#x2021;" horiz-adv-x="523" 
d="M220 560v160h83v-160h165v-74h-165v-252h165v-74h-165v-160h-83v160h-165v74h165v252h-165v74h165z" />
    <glyph glyph-name="bullet" unicode="&#x2022;" horiz-adv-x="350" 
d="M90 403q-35 -29 -35 -70q0 -42 34.5 -70t85.5 -28t85.5 28t34.5 70q0 41 -34.5 70t-85.5 29q-50 0 -85 -29z" />
    <glyph glyph-name="ellipsis" unicode="&#x2026;" horiz-adv-x="686" 
d="M70.5 85q-20.5 -17 -20.5 -42t20.5 -41.5t50.5 -16.5t50.5 16.5t20.5 41.5t-20.5 42t-50.5 17t-50.5 -17zM292.5 85q-20.5 -17 -20.5 -42t20.5 -41.5t50.5 -16.5t50.5 16.5t20.5 41.5t-20.5 42t-50.5 17t-50.5 -17zM514.5 85q-20.5 -17 -20.5 -42t20.5 -41.5t50.5 -16.5
t50.5 16.5t20.5 41.5t-20.5 42t-50.5 17t-50.5 -17z" />
    <glyph glyph-name="uni00A0.narrow" unicode="&#x202f;" horiz-adv-x="150" 
 />
    <glyph glyph-name="perthousand" unicode="&#x2030;" horiz-adv-x="1138" 
d="M43 660q23 34 64.5 54.5t94.5 20.5t94.5 -20.5t64.5 -54.5t23 -75t-23 -75t-64.5 -54.5t-94.5 -20.5t-94.5 20.5t-64.5 54.5t-23 75t23 75zM109 0l450 720h96l-450 -720h-96zM128 529q27 -22 74 -22t74 22t27 56t-27 56t-74 22t-74 -22t-27 -56t27 -56zM403 210
q23 34 64.5 54.5t94.5 20.5t94.5 -20.5t64.5 -54.5t23 -75t-23 -75t-64.5 -54.5t-94.5 -20.5t-94.5 20.5t-64.5 54.5t-23 75t23 75zM787 210q23 34 64.5 54.5t94.5 20.5t94.5 -20.5t64.5 -54.5t23 -75t-23 -75t-64.5 -54.5t-94.5 -20.5t-94.5 20.5t-64.5 54.5t-23 75t23 75z
M488 79q27 -22 74 -22t74 22t27 56t-27 56t-74 22t-74 -22t-27 -56t27 -56zM872 79q27 -22 74 -22t74 22t27 56t-27 56t-74 22t-74 -22t-27 -56t27 -56z" />
    <glyph glyph-name="minute" unicode="&#x2032;" horiz-adv-x="230" 
d="M137 720h93l-137 -220h-93z" />
    <glyph glyph-name="second" unicode="&#x2033;" horiz-adv-x="393" 
d="M137 720h93l-137 -220h-93zM300 720h93l-137 -220h-93z" />
    <glyph glyph-name="uni205F" unicode="&#x205f;" horiz-adv-x="270" 
 />
    <glyph glyph-name="uni2060" unicode="&#x2060;" horiz-adv-x="0" 
 />
    <glyph glyph-name="Euro" unicode="&#x20ac;" horiz-adv-x="1011" 
d="M821 92.5q84 25.5 140 72.5v-103q-58 -39 -141.5 -58.5t-182.5 -19.5q-130 0 -237 33.5t-180 95t-102 141.5h-108v75h91q-2 20 -2 31q0 9 2 29h-91v75h109q31 77 104 138.5t179.5 96.5t234.5 35q96 0 176.5 -19.5t138.5 -56.5v-102q-53 43 -133.5 69.5t-181.5 26.5
q-150 0 -260 -52t-156 -136h574l-43 -75h-556q-2 -20 -2 -29q0 -11 2 -31h527l-43 -75h-458q47 -84 156.5 -135.5t258.5 -51.5q100 0 184 25.5z" />
    <glyph glyph-name="uni20B4" unicode="&#x20b4;" horiz-adv-x="1028" 
d="M826.5 504.5q13.5 15.5 13.5 38.5q0 52 -92.5 81.5t-247.5 29.5q-110 0 -212.5 -23t-165.5 -62v95q67 32 167 51.5t211 19.5q204 0 318.5 -49t114.5 -141q0 -17 -7.5 -35t-21.5 -33h64v-75h-908v75h721q32 12 45.5 27.5zM259 267q-39 -15 -59.5 -38.5t-20.5 -51.5
q0 -60 98 -85t246 -25q114 0 229.5 26.5t176.5 68.5v-94q-54 -36 -172 -59.5t-230 -23.5q-205 0 -323 46t-118 146q0 51 42 90h-68v75h908v-75h-709z" />
    <glyph glyph-name="uni20B8" unicode="&#x20b8;" horiz-adv-x="925" 
d="M905 643h-885v75h885v-75zM905 503h-395v-503h-95v503h-395v80h885v-80z" />
    <glyph glyph-name="uni20BD" unicode="&#x20bd;" horiz-adv-x="974" 
d="M45 290v80h100v350h449q191 0 268 -61t77 -154q0 -89 -77.5 -152t-267.5 -63h-354v-60h401v-75h-401v-155h-95v155h-100v75h100v60h-100zM783.5 407q58.5 37 58.5 98t-58.5 98t-189.5 37h-354v-270h354q131 0 189.5 37z" />
    <glyph glyph-name="uni20BF" unicode="&#x20bf;" horiz-adv-x="970" 
d="M398 815v-95h122v95h88v-96q270 -14 270 -187q0 -51 -35.5 -90.5t-83.5 -59.5q68 -17 117 -61.5t49 -112.5q0 -57 -34 -102.5t-105 -74t-178 -31.5v-114h-88v114h-122v-114h-88v114h-200v720h200v95h88zM726.5 442q53.5 29 53.5 83q0 55 -54 85t-156 30h-367v-227h367
q103 0 156.5 29zM769.5 115q57.5 35 57.5 93q0 57 -57 91t-177 34h-390v-253h390q119 0 176.5 35z" />
    <glyph glyph-name="uni2116" unicode="&#x2116;" horiz-adv-x="1440" 
d="M1039.5 655.5q24.5 36.5 69 58t101.5 21.5t101.5 -21.5t69 -58t24.5 -80.5t-24.5 -80.5t-69 -58t-101.5 -21.5t-101.5 21.5t-69 58t-24.5 80.5t24.5 80.5zM827 90h23v630h95v-720h-154l-563 629h-23v-629h-95v720h160zM1123.5 509q32.5 -27 86.5 -27t86.5 27t32.5 66
t-32.5 66t-86.5 27t-86.5 -27t-32.5 -66t32.5 -66zM1387 279h-354v70h354v-70z" />
    <glyph glyph-name="trademark" unicode="&#x2122;" horiz-adv-x="1089" 
d="M464 664h-195v-318h-69v318h-195v56h459v-56zM774 407h13l131 313h116v-374h-69v313h-15l-131 -313h-93l-136 313h-14v-313h-69v374h131z" />
    <glyph glyph-name="arrowleft" unicode="&#x2190;" horiz-adv-x="1113" 
d="M213 335v-20h850v-73h-850v-16l237 -201h-123l-292 247l292 248h103z" />
    <glyph glyph-name="arrowright" unicode="&#x2192;" horiz-adv-x="1112" 
d="M900 332l-234 188h120l291 -234l-291 -261h-111l225 201v16h-850v73h850v17z" />
    <glyph glyph-name="minus" unicode="&#x2212;" horiz-adv-x="636" 
d="M576 326h-516v74h516v-74z" />
    <glyph glyph-name="notequal" unicode="&#x2260;" horiz-adv-x="636" 
d="M323 406h-263v74h314l76 110h80l-76 -110h122v-74h-173l-67 -97h240v-74h-291l-79 -115h-80l79 115h-145v74h196z" />
    <glyph glyph-name="less_or_equal" unicode="&#x2264;" horiz-adv-x="678" 
d="M263 368v17l355 150v80l-558 -242l558 -242v86zM70 0h548v75h-548v-75z" />
    <glyph glyph-name="greater_or_equal" unicode="&#x2265;" horiz-adv-x="678" 
d="M415 381l-355 151v83l558 -242l-558 -242v83l355 150v17zM608 0h-548v75h548v-75z" />
    <glyph glyph-name="uni24C5" unicode="&#x24c5;" horiz-adv-x="1096" 
d="M289.5 685.5q-113.5 -49.5 -176.5 -135t-63 -190.5q0 -109 63 -194t176 -133t259 -48t259 48t176 133t63 194q0 105 -63 190.5t-176.5 135t-258.5 49.5t-258.5 -49.5zM771 636.5q99 -42.5 155.5 -115.5t56.5 -161t-56.5 -161t-156 -115.5t-222.5 -42.5t-222.5 42.5
t-156 115.5t-56.5 161t56.5 161t155.5 115.5t223 42.5t223 -42.5zM787.5 546q51.5 -38 51.5 -101q0 -64 -51.5 -101t-161.5 -37h-231v-188h-69v465h300q110 0 161.5 -38zM731.5 386q36.5 20 36.5 59q0 79 -142 79h-231v-158h231q69 0 105.5 20z" />
    <glyph glyph-name="uniF50A" unicode="&#xf50a;" horiz-adv-x="916" 
d="M206.5 13.5q97.5 -24.5 216.5 -28.5v-91q20 12 58 12q30 0 43 -10t13 -22q0 -13 -13.5 -21.5t-44.5 -8.5q-43 0 -66 13v-53q25 -14 69 -14q55 0 86.5 24t31.5 60q0 38 -30.5 61t-85.5 23h-1v27q180 4 279 62t99 159q0 69 -53 114.5t-145 62.5q85 27 128.5 65t43.5 101
q0 53 -42 95t-128 66.5t-212 24.5q-125 0 -225.5 -29t-167.5 -73v-96q67 53 168 86t226 33q90 0 154.5 -15.5t98 -42.5t33.5 -61q0 -33 -28.5 -59t-84.5 -41.5t-136 -15.5h-261v-80h261q135 0 205 -34.5t70 -100.5q0 -67 -82 -105t-230 -38q-134 0 -238 29t-161 74v-89
q54 -39 151.5 -63.5z" />
    <glyph glyph-name="uniF50B" unicode="&#xf50b;" horiz-adv-x="740" 
d="M335 -15v-91q20 12 58 12q30 0 43 -10t13 -22q0 -13 -13.5 -21.5t-44.5 -8.5q-43 0 -66 13v-53q25 -14 69 -14q55 0 86.5 24t31.5 60q0 38 -30.5 61t-85.5 23h-1v28q133 6 216.5 50.5t83.5 123.5q0 87 -102 117q34 16 56.5 45.5t22.5 60.5q0 48 -42.5 82t-115.5 52
t-165 18q-98 0 -174 -20t-112 -52v-79q39 35 115 56.5t171 21.5q103 0 166.5 -20t63.5 -61q0 -30 -33.5 -51t-78.5 -21h-296v-75h292q142 0 142 -74q0 -50 -71.5 -76t-183.5 -26q-182 0 -295 81v-78q102 -73 280 -76z" />
    <glyph glyph-name="uniF50E" unicode="&#xf50e;" horiz-adv-x="1037" 
d="M360 817v70h320v-70h-320zM1058 0h-112l-131 209h-558l-133 -209h-103l459 720h125zM529 635l-221 -346h456l-218 346h-17z" />
    <glyph glyph-name="uniF50F" unicode="&#xf50f;" horiz-adv-x="794" 
d="M220 635v70h320v-70h-320zM115 23.5q75 -38.5 211 -38.5q113 0 188.5 30t126.5 86v-101h88v327q0 107 -96 157.5t-261 50.5q-86 0 -165 -17.5t-136 -54.5v-92q51 40 129 63.5t169 23.5q137 0 206 -29t69 -76q0 -23 -24.5 -34t-72 -15t-154.5 -8l-85 -4
q-141 -7 -204.5 -43.5t-63.5 -105.5q0 -81 75 -119.5zM600.5 148.5q-40.5 -42.5 -109.5 -64.5t-153 -22q-202 0 -202 81q0 40 46 58t143 21q15 0 22 1q133 4 199.5 11t94.5 28v-11q0 -60 -40.5 -102.5z" />
    <glyph glyph-name="uniF510" unicode="&#xf510;" horiz-adv-x="935" 
d="M325 817v70h320v-70h-320zM865 640h-660v-219h570v-80h-570v-261h660v-80h-755v720h755v-80z" />
    <glyph glyph-name="uniF511" unicode="&#xf511;" horiz-adv-x="820" 
d="M254 635v70h320v-70h-320zM148 54q108 -69 319 -69q75 0 148.5 15.5t126.5 42.5v83q-52 -31 -124 -48.5t-151 -17.5q-163 0 -248 46.5t-88 146.5h649v12q0 74 -46.5 136t-130.5 98t-193 36q-108 0 -192.5 -36.5t-131 -99.5t-46.5 -139q0 -137 108 -206zM236 424
q71 41 174 41q106 0 177 -41t93 -106h-539q24 65 95 106z" />
    <glyph glyph-name="uniF518" unicode="&#xf518;" horiz-adv-x="1096" 
d="M386 817v70h320v-70h-320zM289.5 685.5q-113.5 -49.5 -176.5 -135t-63 -190.5q0 -109 63 -194t176 -133t259 -48t259 48t176 133t63 194q0 105 -63 190.5t-176.5 135t-258.5 49.5t-258.5 -49.5zM757 613.5q92 -39.5 143 -106.5t51 -147q0 -79 -51 -146.5t-143 -107
t-209 -39.5t-209 39.5t-143 107t-51 146.5q0 80 51 147t143 106.5t209 39.5t209 -39.5z" />
    <glyph glyph-name="uniF519" unicode="&#xf519;" horiz-adv-x="836" 
d="M254 635v70h320v-70h-320zM223 498.5q-86 -36.5 -134.5 -99.5t-48.5 -139q0 -77 48.5 -140t134.5 -99t195 -36t195 36.5t134.5 99.5t48.5 139t-48.5 139t-134.5 99.5t-195 36.5t-195 -36.5zM567 432q65 -26 101 -71t36 -101t-36 -101t-101 -71t-149 -26t-149 26t-101 71
t-36 101t36 101t101 71t149 26t149 -26z" />
    <glyph glyph-name="uniF51A" unicode="&#xf51a;" horiz-adv-x="1096" 
d="M663 893.5q-16 -21.5 -48 -35t-77 -13.5t-77 13.5t-48 35t-16 44.5h-75q0 -39 25 -75t74 -58t117 -22t117 22t74 58t25 75h-75q0 -23 -16 -44.5zM289.5 685.5q-113.5 -49.5 -176.5 -135t-63 -190.5q0 -109 63 -194t176 -133t259 -48t259 48t176 133t63 194
q0 105 -63 190.5t-176.5 135t-258.5 49.5t-258.5 -49.5zM757 613.5q92 -39.5 143 -106.5t51 -147q0 -79 -51 -146.5t-143 -107t-209 -39.5t-209 39.5t-143 107t-51 146.5q0 80 51 147t143 106.5t209 39.5t209 -39.5z" />
    <glyph glyph-name="uniF51B" unicode="&#xf51b;" horiz-adv-x="836" 
d="M539 702.5q-16 -24.5 -48.5 -39.5t-77.5 -15t-77.5 15t-48.5 39.5t-16 52.5h-79q0 -44 25.5 -83.5t76 -63.5t119.5 -24t119.5 24t76 63.5t25.5 83.5h-79q0 -28 -16 -52.5zM223 498.5q-86 -36.5 -134.5 -99.5t-48.5 -139q0 -77 48.5 -140t134.5 -99t195 -36t195 36.5
t134.5 99.5t48.5 139t-48.5 139t-134.5 99.5t-195 36.5t-195 -36.5zM567 432q65 -26 101 -71t36 -101t-36 -101t-101 -71t-149 -26t-149 26t-101 71t-36 101t36 101t101 71t149 26t149 -26z" />
    <glyph glyph-name="uniF522" unicode="&#xf522;" horiz-adv-x="972" 
d="M279 817v70h320v-70h-320zM205 4.5q86 -19.5 188 -19.5q158 0 277.5 44.5t185.5 129t66 201.5q0 116 -68 201t-188 129.5t-273 44.5q-195 0 -329 -75v-102q54 42 137 68.5t192 26.5q172 0 287 -60.5t140 -172.5h-600v-80h606q-5 -87 -60 -148.5t-150.5 -93t-222.5 -31.5
q-106 0 -193 25t-145 70v-102q64 -36 150 -55.5z" />
    <glyph glyph-name="uniF523" unicode="&#xf523;" horiz-adv-x="748" 
d="M184 635v70h320v-70h-320zM149.5 -3q63.5 -12 137.5 -12q188 0 304.5 69t116.5 206q0 86 -55 148t-151 94.5t-215 32.5q-74 0 -136 -12.5t-106 -34.5v-87q40 29 102 45t140 16q127 0 215.5 -39.5t110.5 -115.5h-393v-75h398q-14 -84 -105 -129t-226 -45q-78 0 -141.5 16
t-105.5 45v-88q46 -22 109.5 -34z" />
    <glyph glyph-name="uniF524" unicode="&#xf524;" horiz-adv-x="972" 
d="M570 893.5q-16 -21.5 -48 -35t-77 -13.5t-77 13.5t-48 35t-16 44.5h-75q0 -39 25 -75t74 -58t117 -22t117 22t74 58t25 75h-75q0 -23 -16 -44.5zM205 4.5q86 -19.5 188 -19.5q158 0 277.5 44.5t185.5 129t66 201.5q0 116 -68 201t-188 129.5t-273 44.5q-195 0 -329 -75
v-102q54 42 137 68.5t192 26.5q172 0 287 -60.5t140 -172.5h-600v-80h606q-5 -87 -60 -148.5t-150.5 -93t-222.5 -31.5q-106 0 -193 25t-145 70v-102q64 -36 150 -55.5z" />
    <glyph glyph-name="uniF525" unicode="&#xf525;" horiz-adv-x="748" 
d="M477 702.5q-16 -24.5 -48.5 -39.5t-77.5 -15t-77.5 15t-48.5 39.5t-16 52.5h-79q0 -44 25.5 -83.5t76 -63.5t119.5 -24t119.5 24t76 63.5t25.5 83.5h-79q0 -28 -16 -52.5zM149.5 -3q63.5 -12 137.5 -12q188 0 304.5 69t116.5 206q0 86 -55 148t-151 94.5t-215 32.5
q-74 0 -136 -12.5t-106 -34.5v-87q40 29 102 45t140 16q127 0 215.5 -39.5t110.5 -115.5h-393v-75h398q-14 -84 -105 -129t-226 -45q-78 0 -141.5 16t-105.5 45v-88q46 -22 109.5 -34z" />
    <glyph glyph-name="uniF528" unicode="&#xf528;" horiz-adv-x="1000" 
d="M390 817v70h320v-70h-320zM238 339.5q-75 31.5 -103.5 78t-28.5 96.5t28.5 96.5t103.5 78t203 31.5h449v-720h-95v308h-135l-462 -307h-148l443 293v14h-52q-128 0 -203 31.5zM257 425q54 -37 184 -37h354v252h-354q-130 0 -184 -37t-54 -89t54 -89z" />
    <glyph glyph-name="uniF529" unicode="&#xf529;" horiz-adv-x="788" 
d="M264 635v70h320v-70h-320zM124.5 259q-55.5 43 -55.5 108q0 66 56.5 109.5t186.5 43.5h396v-520h-90v215h-165l-301 -215h-122l278 199v16q-128 1 -183.5 44zM312 286h306v163h-306q-153 0 -153 -82q0 -81 153 -81z" />
    <glyph glyph-name="uniF52C" unicode="&#xf52c;" horiz-adv-x="1380" 
d="M430 817v70h320v-70h-320zM359 421q17 91 80 162t166.5 111.5t236.5 40.5q147 0 258 -49.5t170.5 -135t59.5 -190.5q0 -109 -59.5 -194.5t-170 -133t-258.5 -47.5q-144 0 -252.5 45t-169 125.5t-66.5 185.5h-149v-341h-95v720h95v-299h154zM496.5 213.5
q47.5 -66.5 137 -105t208.5 -38.5t208.5 38.5t137 105t47.5 146.5q0 81 -47.5 147t-136.5 104.5t-209 38.5t-209 -38.5t-136.5 -104.5t-47.5 -147q0 -80 47.5 -146.5z" />
    <glyph glyph-name="uniF52D" unicode="&#xf52d;" horiz-adv-x="1048" 
d="M365 635v70h320v-70h-320zM328.5 108q48.5 -57 129.5 -90t182 -33q106 0 190 36.5t131 99.5t47 139t-47 139t-131 99.5t-190 36.5q-94 0 -171 -29t-126.5 -79.5t-64.5 -114.5h-108v208h-90v-520h90v237h103q7 -72 55.5 -129zM398.5 361q34.5 45 97.5 71t144 26t144 -26
t97.5 -71t34.5 -101t-34.5 -101t-97.5 -71t-144 -26t-144 26t-97.5 71t-34.5 101t34.5 101z" />
    <glyph glyph-name="uniF536" unicode="&#xf536;" horiz-adv-x="1244" 
d="M750 893.5q-16 -21.5 -48 -35t-77 -13.5t-77 13.5t-48 35t-16 44.5h-75q0 -39 25 -75t74 -58t117 -22t117 22t74 58t25 75h-75q0 -23 -16 -44.5zM807 63.5q77 63.5 77 159.5q0 97 -77 160t-268 63h-334v274h-95v-720h429q191 0 268 63.5zM1039 0v720h95v-720h-95z
M728.5 327q58.5 -39 58.5 -104t-58.5 -104t-189.5 -39h-334v286h334q131 0 189.5 -39z" />
    <glyph glyph-name="uniF537" unicode="&#xf537;" horiz-adv-x="970" 
d="M608 702.5q-16 -24.5 -48.5 -39.5t-77.5 -15t-77.5 15t-48.5 39.5t-16 52.5h-79q0 -44 25.5 -83.5t76 -63.5t119.5 -24t119.5 24t76 63.5t25.5 83.5h-79q0 -28 -16 -52.5zM656.5 282q58.5 -47 58.5 -117t-58.5 -117.5t-197.5 -47.5h-379v520h90v-191h289q139 0 197.5 -47
zM800 520h90v-520h-90v520zM622 165q0 89 -163 89h-289v-179h289q163 0 163 90z" />
    <glyph glyph-name="uniF53C" unicode="&#xf53c;" horiz-adv-x="855" 
d="M825 640h-620v-234h538v-80h-538v-326h-95v720h715v-80z" />
    <glyph glyph-name="uniF53D" unicode="&#xf53d;" horiz-adv-x="628" 
d="M598 445h-428v-161h335v-72h-335v-212h-90v520h518v-75z" />
    <glyph glyph-name="uniF53E" unicode="&#xf53e;" horiz-adv-x="962" 
d="M110.5 177q60.5 -82 170 -132.5t251.5 -58.5v-92q20 12 58 12q30 0 43 -10t13 -22q0 -13 -13.5 -21.5t-44.5 -8.5q-43 0 -66 13v-53q25 -14 69 -14q55 0 86.5 24t31.5 60q0 38 -30.5 61t-85.5 23h-1v26q98 1 180 20t140 58v103q-56 -47 -140 -72.5t-184 -25.5
q-129 0 -230 40t-157 107t-56 146t56 146t157 106.5t230 39.5q101 0 181.5 -26.5t133.5 -69.5v102q-58 37 -138.5 56.5t-176.5 19.5q-155 0 -278 -51t-191.5 -137t-68.5 -186q0 -101 60.5 -183z" />
    <glyph glyph-name="uniF53F" unicode="&#xf53f;" horiz-adv-x="708" 
d="M84.5 125q44.5 -59 124 -94.5t181.5 -43.5v-93q20 12 58 12q30 0 43 -10t13 -22q0 -13 -13.5 -21.5t-44.5 -8.5q-43 0 -66 13v-53q25 -14 69 -14q55 0 86.5 24t31.5 60q0 38 -30.5 61t-85.5 23h-1v27q61 1 118 12.5t100 33.5v90q-40 -30 -98 -44.5t-125 -14.5
q-89 0 -160.5 25.5t-112 70.5t-40.5 102t40.5 102t112 70.5t160.5 25.5q137 0 218 -59v89q-89 47 -218 47q-113 0 -206 -36t-146 -99t-53 -140q0 -76 44.5 -135z" />
    <glyph glyph-name="uniF6D4" unicode="&#xf6d4;" horiz-adv-x="462" 
d="M357 702.5q-16 -24.5 -48.5 -39.5t-77.5 -15t-77.5 15t-48.5 39.5t-16 52.5h-79q0 -44 25.5 -83.5t76 -63.5t119.5 -24t119.5 24t76 63.5t25.5 83.5h-79q0 -28 -16 -52.5z" />
    <glyph glyph-name="uniFEFF" unicode="&#xfeff;" horiz-adv-x="0" 
 />
    <glyph glyph-name="W.alt" horiz-adv-x="1302" 
d="M488 95l111 198v28l-223 399h111l173 -309h12l173 309h106l-225 -401v-27l113 -202h18l339 630h106l-388 -720h-136l-112 200h-13l-112 -200h-137l-404 720h116l351 -625h21z" />
    <glyph glyph-name="Wcircumflex.alt" horiz-adv-x="1302" 
d="M633 930h45l191 -155h-106l-96 78h-24l-96 -78h-105zM778 0l-112 200h-13l-112 -200h-137l-404 720h116l351 -625h21l111 198v28l-223 399h111l173 -309h12l173 309h106l-225 -401v-27l113 -202h18l339 630h106l-388 -720h-136z" />
    <glyph glyph-name="Wgrave.alt" horiz-adv-x="1302" 
d="M703 790h-100l-149 140h116zM488 95l111 198v28l-223 399h111l173 -309h12l173 309h106l-225 -401v-27l113 -202h18l339 630h106l-388 -720h-136l-112 200h-13l-112 -200h-137l-404 720h116l351 -625h21z" />
    <glyph glyph-name="Wacute.alt" horiz-adv-x="1302" 
d="M621 790h86l149 140h-102zM488 95l111 198v28l-223 399h111l173 -309h12l173 309h106l-225 -401v-27l113 -202h18l339 630h106l-388 -720h-136l-112 200h-13l-112 -200h-137l-404 720h116l351 -625h21z" />
    <glyph glyph-name="Wdieresis.alt" horiz-adv-x="1302" 
d="M479.5 894q-20.5 -17 -20.5 -42t20.5 -41.5t50.5 -16.5t50.5 16.5t20.5 41.5t-20.5 42t-50.5 17t-50.5 -17zM737.5 894q-20.5 -17 -20.5 -42t20.5 -41.5t50.5 -16.5t50.5 16.5t20.5 41.5t-20.5 42t-50.5 17t-50.5 -17zM488 95l111 198v28l-223 399h111l173 -309h12
l173 309h106l-225 -401v-27l113 -202h18l339 630h106l-388 -720h-136l-112 200h-13l-112 -200h-137l-404 720h116l351 -625h21z" />
    <glyph glyph-name="Cacute.pl" horiz-adv-x="962" 
d="M525 790h88l77 140h-104zM772 92.5q-84 -25.5 -184 -25.5q-138 0 -238.5 39.5t-152.5 106.5t-52 147t52 146.5t152.5 106t238.5 39.5q101 0 181.5 -26.5t133.5 -69.5v102q-58 37 -138.5 56.5t-176.5 19.5q-164 0 -286 -50.5t-187 -136t-65 -187.5q0 -109 64.5 -194.5
t186 -133.5t287.5 -48q99 0 182.5 19.5t141.5 58.5v103q-56 -47 -140 -72.5z" />
    <glyph glyph-name="Nacute.pl" horiz-adv-x="1055" 
d="M531 790h88l77 140h-104zM827 90h23v630h95v-720h-154l-563 629h-23v-629h-95v720h160z" />
    <glyph glyph-name="Oacute.pl" horiz-adv-x="1096" 
d="M502 790h88l77 140h-104zM289.5 685.5q-113.5 -49.5 -176.5 -135t-63 -190.5q0 -109 63 -194t176 -133t259 -48t259 48t176 133t63 194q0 105 -63 190.5t-176.5 135t-258.5 49.5t-258.5 -49.5zM757 613.5q92 -39.5 143 -106.5t51 -147q0 -79 -51 -146.5t-143 -107
t-209 -39.5t-209 39.5t-143 107t-51 146.5q0 80 51 147t143 106.5t209 39.5t209 -39.5z" />
    <glyph glyph-name="Sacute.pl" horiz-adv-x="927" 
d="M418 790h88l77 140h-104zM263.5 446.5q-68.5 14.5 -100.5 33t-32 49.5q0 38 43 66t120.5 43.5t178.5 15.5q110 0 212.5 -23t165.5 -62v95q-67 32 -167 51.5t-211 19.5q-132 0 -230 -25.5t-150.5 -72t-52.5 -108.5q0 -58 33 -91.5t117 -57.5t256 -51q141 -22 213.5 -39.5
t104 -38.5t31.5 -54q0 -68 -100.5 -99t-244.5 -31q-114 0 -229.5 26.5t-176.5 68.5v-94q54 -36 172 -59.5t230 -23.5q200 0 320.5 53.5t120.5 158.5q0 61 -37.5 98t-122 62t-245.5 51q-150 24 -218.5 38.5z" />
    <glyph glyph-name="Zacute.pl" horiz-adv-x="880" 
d="M392 790h88l77 140h-104zM724 640h-674v80h780v-125l-672 -488v-27h672v-80h-780v127l674 489v24z" />
    <glyph glyph-name="uni0416.bgr" horiz-adv-x="1282" 
d="M45 641v94l525 -335h21v320h95v-320h21l525 335v-91l-428 -273v-14l478 -357h-146l-429 323h-21v-323h-95v323h-22l-430 -323h-139l474 353v14z" />
    <glyph glyph-name="uni041A.bgr" horiz-adv-x="973" 
d="M205 424h20l689 311v-83l-610 -274v-16l669 -362h-178l-571 309h-19v-309h-95v720h95v-296z" />
    <glyph glyph-name="uni041B.bgr" horiz-adv-x="900" 
d="M900 0h-114l-353 630h-18l-316 -630h-99l361 720h136z" />
    <glyph glyph-name="iacute_j_acutecomb" horiz-adv-x="500" 
d="M88 587h95l175 170h-112zM338 587h95l175 170h-112zM80 520h90v-520h-90v520zM363.5 -154.5q-56.5 -55.5 -152.5 -55.5q-39 0 -71 9.5t-54 25.5v85q24 -20 54.5 -31.5t59.5 -11.5q130 0 130 129v524h90v-524q0 -95 -56.5 -150.5z" />
    <glyph glyph-name="a.alt" horiz-adv-x="859" 
d="M566 14q-71 -29 -161 -29q-106 0 -189.5 38.5t-129.5 102t-46 134.5q0 77 44.5 139.5t126.5 99t189 36.5q90 0 163 -29.5t126 -77.5v92h90v-520h-90v91q-52 -48 -123 -77zM668 361q-36 45 -101 71t-149 26t-149 -26t-101 -71t-36 -101t36 -101t101 -71t149 -26t149 26
t101 71t36 101t-36 101z" />
    <glyph glyph-name="agrave.alt" horiz-adv-x="859" 
d="M465 587h-99l-175 170h116zM566 14q-71 -29 -161 -29q-106 0 -189.5 38.5t-129.5 102t-46 134.5q0 77 44.5 139.5t126.5 99t189 36.5q90 0 163 -29.5t126 -77.5v92h90v-520h-90v91q-52 -48 -123 -77zM668 361q-36 45 -101 71t-149 26t-149 -26t-101 -71t-36 -101t36 -101
t101 -71t149 -26t149 26t101 71t36 101t-36 101z" />
    <glyph glyph-name="aacute.alt" horiz-adv-x="859" 
d="M356 587h95l175 170h-112zM566 14q-71 -29 -161 -29q-106 0 -189.5 38.5t-129.5 102t-46 134.5q0 77 44.5 139.5t126.5 99t189 36.5q90 0 163 -29.5t126 -77.5v92h90v-520h-90v91q-52 -48 -123 -77zM668 361q-36 45 -101 71t-149 26t-149 -26t-101 -71t-36 -101t36 -101
t101 -71t149 -26t149 26t101 71t36 101t-36 101z" />
    <glyph glyph-name="acircumflex.alt" horiz-adv-x="859" 
d="M399 757h38l213 -170h-101l-117 93h-26l-117 -93h-103zM689 91q-52 -48 -123 -77t-161 -29q-106 0 -189.5 38.5t-129.5 102t-46 134.5q0 77 44.5 139.5t126.5 99t189 36.5q90 0 163 -29.5t126 -77.5v92h90v-520h-90v91zM567 88q65 26 101 71t36 101t-36 101t-101 71
t-149 26t-149 -26t-101 -71t-36 -101t36 -101t101 -71t149 -26t149 26z" />
    <glyph glyph-name="atilde.alt" horiz-adv-x="859" 
d="M290.5 667.5q15.5 19.5 39.5 19.5q18 0 33 -7.5t34 -23.5q28 -21 51.5 -32.5t61.5 -11.5q59 0 95.5 34.5t36.5 90.5h-75q0 -24 -15.5 -43.5t-39.5 -19.5q-18 0 -33 7.5t-34 23.5q-28 21 -51.5 32.5t-61.5 11.5q-59 0 -95.5 -34.5t-36.5 -90.5h75q0 24 15.5 43.5zM566 14
q-71 -29 -161 -29q-106 0 -189.5 38.5t-129.5 102t-46 134.5q0 77 44.5 139.5t126.5 99t189 36.5q90 0 163 -29.5t126 -77.5v92h90v-520h-90v91q-52 -48 -123 -77zM668 361q-36 45 -101 71t-149 26t-149 -26t-101 -71t-36 -101t36 -101t101 -71t149 -26t149 26t101 71
t36 101t-36 101z" />
    <glyph glyph-name="adieresis.alt" horiz-adv-x="859" 
d="M231.5 715q-20.5 -17 -20.5 -42t20.5 -41.5t50.5 -16.5t50.5 16.5t20.5 41.5t-20.5 42t-50.5 17t-50.5 -17zM481.5 715q-20.5 -17 -20.5 -42t20.5 -41.5t50.5 -16.5t50.5 16.5t20.5 41.5t-20.5 42t-50.5 17t-50.5 -17zM566 14q-71 -29 -161 -29q-106 0 -189.5 38.5
t-129.5 102t-46 134.5q0 77 44.5 139.5t126.5 99t189 36.5q90 0 163 -29.5t126 -77.5v92h90v-520h-90v91q-52 -48 -123 -77zM668 361q-36 45 -101 71t-149 26t-149 -26t-101 -71t-36 -101t36 -101t101 -71t149 -26t149 26t101 71t36 101t-36 101z" />
    <glyph glyph-name="aring.alt" horiz-adv-x="859" 
d="M334.5 745.5q34.5 29.5 84.5 29.5t84.5 -29.5t34.5 -72.5t-34.5 -72.5t-84.5 -29.5t-84.5 29.5t-34.5 72.5t34.5 72.5zM378.5 706.5q-17.5 -13.5 -17.5 -33.5t17.5 -33.5t41.5 -13.5q25 0 41 13.5t16 33.5t-16 33.5t-41 13.5q-24 0 -41.5 -13.5zM566 14q-71 -29 -161 -29
q-106 0 -189.5 38.5t-129.5 102t-46 134.5q0 77 44.5 139.5t126.5 99t189 36.5q90 0 163 -29.5t126 -77.5v92h90v-520h-90v91q-52 -48 -123 -77zM668 361q-36 45 -101 71t-149 26t-149 -26t-101 -71t-36 -101t36 -101t101 -71t149 -26t149 26t101 71t36 101t-36 101z" />
    <glyph glyph-name="amacron.alt" horiz-adv-x="859" 
d="M261 635v70h320v-70h-320zM566 14q-71 -29 -161 -29q-106 0 -189.5 38.5t-129.5 102t-46 134.5q0 77 44.5 139.5t126.5 99t189 36.5q90 0 163 -29.5t126 -77.5v92h90v-520h-90v91q-52 -48 -123 -77zM668 361q-36 45 -101 71t-149 26t-149 -26t-101 -71t-36 -101t36 -101
t101 -71t149 -26t149 26t101 71t36 101t-36 101z" />
    <glyph glyph-name="abreve.alt" horiz-adv-x="859" 
d="M541 702.5q-16 -24.5 -48.5 -39.5t-77.5 -15t-77.5 15t-48.5 39.5t-16 52.5h-79q0 -44 25.5 -83.5t76 -63.5t119.5 -24t119.5 24t76 63.5t25.5 83.5h-79q0 -28 -16 -52.5zM566 14q-71 -29 -161 -29q-106 0 -189.5 38.5t-129.5 102t-46 134.5q0 77 44.5 139.5t126.5 99
t189 36.5q90 0 163 -29.5t126 -77.5v92h90v-520h-90v91q-52 -48 -123 -77zM668 361q-36 45 -101 71t-149 26t-149 -26t-101 -71t-36 -101t36 -101t101 -71t149 -26t149 26t101 71t36 101t-36 101z" />
    <glyph glyph-name="aogonek.alt" horiz-adv-x="859" 
d="M84.5 399.5q44.5 62.5 126.5 99t189 36.5q90 0 163 -29.5t126 -77.5v92h90v-520q-40 -14 -62.5 -34.5t-22.5 -45.5q0 -21 13.5 -32t37.5 -11q38 0 63 14v-65q-25 -14 -66 -14q-59 0 -91 25t-32 68q0 36 22.5 60t47.5 35v91q-52 -48 -123 -77t-161 -29q-106 0 -189.5 38.5
t-129.5 102t-46 134.5q0 77 44.5 139.5zM168 159q36 -45 101 -71t149 -26t149 26t101 71t36 101t-36 101t-101 71t-149 26t-149 -26t-101 -71t-36 -101t36 -101z" />
    <glyph glyph-name="aringacute.alt" horiz-adv-x="859" 
d="M376 811h86l149 140h-102zM334.5 745.5q34.5 29.5 84.5 29.5t84.5 -29.5t34.5 -72.5t-34.5 -72.5t-84.5 -29.5t-84.5 29.5t-34.5 72.5t34.5 72.5zM378.5 706.5q-17.5 -13.5 -17.5 -33.5t17.5 -33.5t41.5 -13.5q25 0 41 13.5t16 33.5t-16 33.5t-41 13.5q-24 0 -41.5 -13.5
zM566 14q-71 -29 -161 -29q-106 0 -189.5 38.5t-129.5 102t-46 134.5q0 77 44.5 139.5t126.5 99t189 36.5q90 0 163 -29.5t126 -77.5v92h90v-520h-90v91q-52 -48 -123 -77zM668 361q-36 45 -101 71t-149 26t-149 -26t-101 -71t-36 -101t36 -101t101 -71t149 -26t149 26
t101 71t36 101t-36 101z" />
    <glyph glyph-name="cacute.pl" horiz-adv-x="708" 
d="M386 587h77l87 170h-94zM570 76.5q-58 -14.5 -125 -14.5q-94 0 -165 25t-109.5 70t-38.5 103t38.5 103t109.5 70t165 25q137 0 218 -59v89q-89 47 -218 47q-118 0 -210 -36t-143.5 -99t-51.5 -140q0 -82 50.5 -144.5t142.5 -96.5t212 -34q63 0 121 11.5t102 34.5v90
q-40 -30 -98 -44.5z" />
    <glyph glyph-name="nacute.pl" 
d="M370 587h77l87 170h-94zM279 502.5q67 32.5 159 32.5q128 0 206 -65t78 -204v-266h-90v251q0 107 -54.5 157t-161.5 50q-106 0 -176 -50t-70 -171v-237h-90v520h90v-101q42 51 109 83.5z" />
    <glyph glyph-name="oacute.pl" horiz-adv-x="836" 
d="M386 585h77l87 170h-94zM223 498.5q-86 -36.5 -134.5 -99.5t-48.5 -139q0 -77 48.5 -140t134.5 -99t195 -36t195 36.5t134.5 99.5t48.5 139t-48.5 139t-134.5 99.5t-195 36.5t-195 -36.5zM567 432q65 -26 101 -71t36 -101t-36 -101t-101 -71t-149 -26t-149 26t-101 71
t-36 101t36 101t101 71t149 26t149 -26z" />
    <glyph glyph-name="sacute.pl" horiz-adv-x="711" 
d="M322 587h77l87 170h-94zM163.5 1q78.5 -16 168.5 -16q104 0 181 20.5t117.5 58.5t40.5 87q0 43 -27 70t-89.5 44.5t-175.5 30.5q-104 12 -154 20.5t-72.5 22t-22.5 36.5q0 24 31 44t87.5 31.5t130.5 11.5q81 0 149 -13.5t116 -40.5v78q-33 22 -102.5 35.5t-162.5 13.5
q-104 0 -181 -22t-117.5 -60t-40.5 -84q0 -42 29.5 -69.5t91.5 -44.5t165 -28q106 -12 157.5 -21t73.5 -22t22 -35q0 -39 -64 -64t-175 -25q-94 0 -173 16.5t-122 42.5v-81q40 -21 118.5 -37z" />
    <glyph glyph-name="zacute.pl" horiz-adv-x="673" 
d="M286 587h77l87 170h-94zM524 447h-479v73h583v-110l-467 -314v-23h467v-73h-583v105l479 322v20z" />
    <glyph glyph-name="a.alt.cyr" horiz-adv-x="859" 
d="M566 14q-71 -29 -161 -29q-106 0 -189.5 38.5t-129.5 102t-46 134.5q0 77 44.5 139.5t126.5 99t189 36.5q90 0 163 -29.5t126 -77.5v92h90v-520h-90v91q-52 -48 -123 -77zM668 361q-36 45 -101 71t-149 26t-149 -26t-101 -71t-36 -101t36 -101t101 -71t149 -26t149 26
t101 71t36 101t-36 101z" />
    <glyph glyph-name="abreve.alt.cyr" horiz-adv-x="859" 
d="M541 702.5q-16 -24.5 -48.5 -39.5t-77.5 -15t-77.5 15t-48.5 39.5t-16 52.5h-79q0 -44 25.5 -83.5t76 -63.5t119.5 -24t119.5 24t76 63.5t25.5 83.5h-79q0 -28 -16 -52.5zM566 14q-71 -29 -161 -29q-106 0 -189.5 38.5t-129.5 102t-46 134.5q0 77 44.5 139.5t126.5 99
t189 36.5q90 0 163 -29.5t126 -77.5v92h90v-520h-90v91q-52 -48 -123 -77zM668 361q-36 45 -101 71t-149 26t-149 -26t-101 -71t-36 -101t36 -101t101 -71t149 -26t149 26t101 71t36 101t-36 101z" />
    <glyph glyph-name="uni0432.bgr" horiz-adv-x="687" 
d="M123.5 673q68.5 62 202.5 62h6q90 0 152 -27.5t91.5 -71t29.5 -91.5q0 -112 -112 -162q67 -17 113 -63t46 -120q0 -60 -35 -109t-102 -77.5t-160 -28.5h-8q-137 0 -214.5 65.5t-77.5 182.5v272q0 106 68.5 168zM467 442.5q47 31.5 47 95.5q0 56 -48 90t-126 34h-17
q-79 0 -131 -37.5t-52 -121.5v-92h179q101 0 148 31.5zM195.5 101.5q55.5 -39.5 151.5 -39.5h16q91 0 143.5 38t52.5 100q0 136 -240 136h-179v-98q0 -97 55.5 -136.5z" />
    <glyph glyph-name="uni0433.bgr" horiz-adv-x="711" 
d="M546 4.5q-79 -19.5 -172 -19.5q-155 0 -244.5 41t-89.5 117q0 49 27 78.5t93.5 47.5t189.5 29q91 8 141 19.5t70 26.5t20 37q0 37 -59.5 59t-156.5 22q-98 0 -171 -20.5t-129 -62.5v84q42 30 118.5 51t178.5 21q96 0 166 -19t106.5 -54t36.5 -81q0 -44 -28 -73.5
t-90.5 -48.5t-167.5 -30q-97 -10 -150.5 -20.5t-78 -26t-24.5 -39.5q0 -41 62 -62t172 -21q92 0 175 22.5t125 58.5v-87q-41 -30 -120 -49.5z" />
    <glyph glyph-name="uni0434.bgr" horiz-adv-x="859" 
d="M86 125.5q46 -63.5 129.5 -102t189.5 -38.5q171 0 284 106v-41q0 -88 -75.5 -135.5t-208.5 -47.5q-95 0 -171.5 23t-132.5 63v-91q48 -31 127.5 -51.5t170.5 -20.5q113 0 199 31.5t133.5 93.5t47.5 149v456h-90v-90q-112 105 -289 105q-107 0 -189 -36.5t-126.5 -99
t-44.5 -139.5q0 -71 46 -134.5zM168 361q36 45 101 71t149 26t149 -26t101 -71t36 -101t-36 -101t-101 -71t-149 -26t-149 26t-101 71t-36 101t36 101z" />
    <glyph glyph-name="uni0436.bgr" horiz-adv-x="1018" 
d="M79 448v87l361 -226h18v411h92v-411h18l361 226v-81l-272 -170v-15l361 -269h-130l-315 235h-23v-235h-92v235h-23l-315 -235h-120l352 262v16z" />
    <glyph glyph-name="uni0437.bgr" horiz-adv-x="680" 
d="M148 -190.5q71 -19.5 167 -19.5q95 0 169 29.5t115 82t41 119.5q0 72 -34.5 115t-87.5 63q42 20 70.5 58t28.5 87q0 58 -39 101t-108 66.5t-156 23.5q-94 0 -167 -20.5t-109 -51.5v-81q39 34 112 56t164 22q92 0 150 -31t58 -87q0 -29 -17 -55t-48.5 -41.5t-72.5 -15.5
h-238v-74h216q89 0 137.5 -36.5t48.5 -98.5q0 -47 -29 -82t-81.5 -54.5t-122.5 -19.5q-171 0 -285 81v-85q47 -32 118 -51.5z" />
    <glyph glyph-name="uni0438.bgr" 
d="M209.5 112q54.5 -50 161.5 -50q106 0 176 50t70 171v237h90v-520h-90v101q-42 -51 -109 -83.5t-159 -32.5q-77 0 -141.5 30t-103.5 90.5t-39 148.5v266h90v-251q0 -107 54.5 -157z" />
    <glyph glyph-name="uni0439.bgr" 
d="M517 702.5q-16 -24.5 -48.5 -39.5t-77.5 -15t-77.5 15t-48.5 39.5t-16 52.5h-79q0 -44 25.5 -83.5t76 -63.5t119.5 -24t119.5 24t76 63.5t25.5 83.5h-79q0 -28 -16 -52.5zM209.5 112q54.5 -50 161.5 -50q106 0 176 50t70 171v237h90v-520h-90v101q-42 -51 -109 -83.5
t-159 -32.5q-77 0 -141.5 30t-103.5 90.5t-39 148.5v266h90v-251q0 -107 54.5 -157z" />
    <glyph glyph-name="uni043A.bgr" horiz-adv-x="730" 
d="M170 320h22l468 215v-77l-391 -180v-19l461 -259h-158l-379 213h-23v-213h-90v720h90v-400z" />
    <glyph glyph-name="uni043B.bgr" horiz-adv-x="708" 
d="M708 0h-102l-254 439h-20l-238 -439h-94l282 520h124z" />
    <glyph glyph-name="uni043D.bgr" horiz-adv-x="790" 
d="M170 312h450v208h90v-520h-90v237h-450v-237h-90v520h90v-208z" />
    <glyph glyph-name="uni043F.bgr" 
d="M279 502.5q67 32.5 159 32.5q128 0 206 -65t78 -204v-266h-90v251q0 107 -54.5 157t-161.5 50q-106 0 -176 -50t-70 -171v-237h-90v520h90v-101q42 51 109 83.5z" />
    <glyph glyph-name="uni0442.bgr" horiz-adv-x="1141" 
d="M383 535q59 0 121 -28.5t94 -95.5q33 54 91.5 89t147.5 35q49 0 103.5 -20.5t95 -74.5t40.5 -147v-293h-90v265q0 193 -164 193q-200 0 -200 -203v-255h-90v265q0 193 -164 193q-198 0 -198 -203v-255h-90v520h90v-85q78 100 213 100z" />
    <glyph glyph-name="uni0446.bgr" horiz-adv-x="822" 
d="M209.5 112q54.5 -50 161.5 -50q106 0 176 50t70 171v237h90v-443h105v-207h-80v130h-115v101q-42 -51 -109 -83.5t-159 -32.5q-77 0 -141.5 30t-103.5 90.5t-39 148.5v266h90v-251q0 -107 54.5 -157z" />
    <glyph glyph-name="uni0447.bgr" horiz-adv-x="709" 
d="M158.5 328q23.5 -32 68.5 -44.5t119 -12.5q52 0 109.5 6t83.5 15v228h90v-520h-90v217q-30 -8 -87.5 -14.5t-109.5 -6.5q-148 0 -222.5 48.5t-74.5 156.5v119h90v-103q0 -57 23.5 -89z" />
    <glyph glyph-name="uni0448.bgr" horiz-adv-x="1141" 
d="M758 -15q-59 0 -121 28.5t-94 95.5q-33 -54 -91.5 -89t-147.5 -35q-49 0 -103.5 20.5t-95 74.5t-40.5 147v293h90v-265q0 -193 164 -193q200 0 200 203v255h90v-265q0 -193 164 -193q198 0 198 203v255h90v-520h-90v85q-78 -100 -213 -100z" />
    <glyph glyph-name="uni0449.bgr" horiz-adv-x="1176" 
d="M319 62q200 0 200 203v255h90v-265q0 -193 164 -193q198 0 198 203v255h90v-443h105v-207h-80v130h-115v85q-78 -100 -213 -100q-59 0 -121 28.5t-94 95.5q-33 -54 -91.5 -89t-147.5 -35q-49 0 -103.5 20.5t-95 74.5t-40.5 147v293h90v-265q0 -193 164 -193z" />
    <glyph glyph-name="uni044A.bgr" horiz-adv-x="810" 
d="M517 330q147 0 207.5 -47t60.5 -118q0 -70 -68.5 -117.5t-225.5 -47.5h-18q-293 0 -293 194v251h-170v75h260v-190h247zM318.5 102.5q48.5 -29.5 154.5 -29.5h18q104 0 152.5 25t48.5 67q0 90 -175 90h-247v-61q0 -62 48.5 -91.5z" />
    <glyph glyph-name="uni044C.bgr" horiz-adv-x="695" 
d="M402 330q147 0 207.5 -47t60.5 -118q0 -70 -68.5 -117.5t-225.5 -47.5h-18q-293 0 -293 194v326h90v-190h247zM203.5 102.5q48.5 -29.5 154.5 -29.5h18q104 0 152.5 25t48.5 67q0 90 -175 90h-247v-61q0 -62 48.5 -91.5z" />
    <glyph glyph-name="uni044E.bgr" horiz-adv-x="1048" 
d="M328.5 108q48.5 -57 129.5 -90t182 -33q106 0 190 36.5t131 99.5t47 139t-47 139t-131 99.5t-190 36.5q-94 0 -171 -29t-126.5 -79.5t-64.5 -114.5h-108v408h-90v-720h90v237h103q7 -72 55.5 -129zM398.5 361q34.5 45 97.5 71t144 26t144 -26t97.5 -71t34.5 -101
t-34.5 -101t-97.5 -71t-144 -26t-144 26t-97.5 71t-34.5 101t34.5 101z" />
    <glyph glyph-name="uni0431.locl" horiz-adv-x="836" 
d="M93.5 375.5q53.5 55.5 158.5 86.5q-83 11 -128.5 40t-45.5 77q0 64 60 93t201 29h140q190 0 255 19v-73q-62 -19 -255 -19h-139q-94 0 -132 -11t-38 -40q0 -32 56.5 -50.5t193.5 -24.5q177 -8 276.5 -75.5t99.5 -181.5q0 -72 -48.5 -131.5t-134.5 -94t-195 -34.5
q-113 0 -199 34.5t-132.5 93.5t-46.5 132q0 75 53.5 130.5zM166 150.5q34 -41.5 98.5 -65t153.5 -23.5q84 0 149 23.5t101 65t36 94.5q0 54 -36 95.5t-101 64.5t-149 23t-149 -23t-101 -64.5t-36 -95.5q0 -53 34 -94.5z" />
    <glyph glyph-name="uni0433.locl" horiz-adv-x="628" 
d="M598 445h-428v-445h-90v520h518v-75z" />
    <glyph glyph-name="uni0434.locl" horiz-adv-x="831" 
d="M138.5 146.5q16.5 42.5 27.5 125.5t11 216v32h539v-445h105v-205h-80v130h-651v-130h-80v205h88q24 29 40.5 71.5zM195 75h431v370h-368q-6 -268 -63 -370z" />
    <glyph glyph-name="uni043F.locl" horiz-adv-x="760" 
d="M680 0h-90v445h-420v-445h-90v520h600v-520z" />
    <glyph glyph-name="uni0442.locl" horiz-adv-x="702" 
d="M682 445h-286v-445h-90v445h-286v75h662v-75z" />
    <glyph glyph-name="slashedzero" horiz-adv-x="1096" 
d="M113 166q63 -85 176 -133t259 -48t259 48t176 133t63 194q0 105 -63 190.5t-176.5 135t-258.5 49.5t-258.5 -49.5t-176.5 -135t-63 -190.5q0 -109 63 -194zM196 507q51 67 143 106.5t209 39.5q118 0 213 -41l-492 -467q-59 41 -91.5 97t-32.5 118q0 80 51 147z
M920.5 475.5q30.5 -54.5 30.5 -115.5q0 -79 -51 -146.5t-143 -107t-209 -39.5q-113 0 -205 38l490 466q57 -41 87.5 -95.5z" />
    <glyph glyph-name="hyphen.cap" horiz-adv-x="450" 
d="M410 348h-370v74h370v-74z" />
    <glyph glyph-name="endash.cap" horiz-adv-x="696" 
d="M656 348h-616v74h616v-74z" />
    <glyph glyph-name="emdash.cap" horiz-adv-x="1020" 
d="M980 348h-940v74h940v-74z" />
    <glyph glyph-name="parenleft.cap" horiz-adv-x="370" 
d="M92.5 608q52.5 118 160.5 212h97q-210 -178 -210 -460q0 -132 49.5 -245t160.5 -215h-102q-108 102 -158 216t-50 244t52.5 248z" />
    <glyph glyph-name="parenright.cap" horiz-adv-x="370" 
d="M180.5 115q49.5 113 49.5 245q0 282 -210 460h97q108 -94 160.5 -212t52.5 -248t-50 -244t-158 -216h-102q111 102 160.5 215z" />
    <glyph glyph-name="bracketleft.cap" horiz-adv-x="430" 
d="M420 -62v-73h-310v985h310v-73h-220v-839h220z" />
    <glyph glyph-name="bracketright.cap" horiz-adv-x="430" 
d="M10 -135v73h220v839h-220v73h310v-985h-310z" />
    <glyph glyph-name="left_curly_bracket.cap" horiz-adv-x="430" 
d="M136.5 410.5q23.5 18.5 23.5 58.5v162q0 107 61.5 163t184.5 56h14v-74h-14q-79 0 -116.5 -34t-37.5 -117v-160q0 -75 -79 -107q79 -32 79 -108v-160q0 -83 37.5 -117t116.5 -34h14v-74h-14q-123 0 -184.5 56t-61.5 163v162q0 40 -23.5 58.5t-76.5 18.5v69
q53 0 76.5 18.5z" />
    <glyph glyph-name="right_curly_bracket.cap" horiz-adv-x="430" 
d="M293.5 304.5q-23.5 -18.5 -23.5 -58.5v-162q0 -107 -61.5 -163t-184.5 -56h-14v74h14q79 0 116.5 34t37.5 117v160q0 76 79 108q-79 32 -79 107v160q0 83 -37.5 117t-116.5 34h-14v74h14q123 0 184.5 -56t61.5 -163v-162q0 -40 23.5 -58.5t76.5 -18.5v-69
q-53 0 -76.5 -18.5z" />
    <glyph glyph-name="guillemotleft.cap" horiz-adv-x="555" 
d="M147 380v-17l195 -172h-104l-198 177l198 177h94zM345 380v-17l195 -172h-104l-198 177l198 177h94z" />
    <glyph glyph-name="guillemotright.cap" horiz-adv-x="555" 
d="M210 356v17l-195 172h104l198 -177l-198 -177h-94zM408 356v17l-195 172h104l198 -177l-198 -177h-94z" />
    <glyph glyph-name="exclamdown.cap" horiz-adv-x="242" 
d="M171.5 635q20.5 17 20.5 42t-20.5 41.5t-50.5 16.5t-50.5 -16.5t-20.5 -41.5t20.5 -42t50.5 -17t50.5 17zM166 520v-520h-90v520h90z" />
    <glyph glyph-name="questiondown.cap" horiz-adv-x="702" 
d="M435.5 635q20.5 17 20.5 42t-20.5 41.5t-50.5 16.5t-50.5 -16.5t-20.5 -41.5t20.5 -42t50.5 -17t50.5 17zM652.5 98q-39.5 -50 -115.5 -81.5t-179 -31.5q-110 0 -186 28t-114 75.5t-38 106.5q0 69 40.5 108.5t122.5 74.5q73 31 108.5 64.5t43.5 77.5h104
q-7 -58 -46.5 -103.5t-142.5 -92.5q-72 -32 -102 -60.5t-30 -68.5q0 -60 59 -96t181 -36q74 0 127.5 22t81 54.5t27.5 63.5h98q0 -55 -39.5 -105z" />
    <glyph glyph-name="i.loclTRK" horiz-adv-x="250" 
d="M71 715q-21 -17 -21 -42t21 -41.5t54 -16.5t54 16.5t21 41.5t-21 42t-54 17t-54 -17zM80 520h90v-520h-90v520z" />
    <glyph glyph-name="acute.cap.pl" horiz-adv-x="171" 
d="M2 790h88l77 140h-104z" />
    <glyph glyph-name="acute.cap" horiz-adv-x="269" 
d="M11 790h86l149 140h-102z" />
    <glyph glyph-name="grave.cap" horiz-adv-x="275" 
d="M260 790h-100l-149 140h116z" />
    <glyph glyph-name="hungarumlaut.cap" horiz-adv-x="467" 
d="M13 790h94l149 140h-110zM201 790h94l149 140h-110z" />
    <glyph glyph-name="circumflex.cap" horiz-adv-x="461" 
d="M122 775h-105l191 155h45l191 -155h-106l-96 78h-24z" />
    <glyph glyph-name="caron.cap" horiz-adv-x="455" 
d="M203 775l-191 155h110l96 -78h24l96 78h105l-191 -155h-49z" />
    <glyph glyph-name="breve.cap" horiz-adv-x="462" 
d="M356 893.5q-16 -21.5 -48 -35t-77 -13.5t-77 13.5t-48 35t-16 44.5h-75q0 -39 25 -75t74 -58t117 -22t117 22t74 58t25 75h-75q0 -23 -16 -44.5z" />
    <glyph glyph-name="tilde.cap" horiz-adv-x="502" 
d="M120.5 846.5q15.5 19.5 39.5 19.5q18 0 33 -7.5t34 -23.5q28 -21 51.5 -32.5t61.5 -11.5q59 0 95.5 34.5t36.5 90.5h-75q0 -24 -15.5 -43.5t-39.5 -19.5q-18 0 -33 7.5t-34 23.5q-28 21 -51.5 32.5t-61.5 11.5q-59 0 -95.5 -34.5t-36.5 -90.5h75q0 24 15.5 43.5z" />
    <glyph glyph-name="macron.cap" horiz-adv-x="320" 
d="M0 817v70h320v-70h-320z" />
    <glyph glyph-name="dieresis.cap" horiz-adv-x="420" 
d="M30.5 894q-20.5 -17 -20.5 -42t20.5 -41.5t50.5 -16.5t50.5 16.5t20.5 41.5t-20.5 42t-50.5 17t-50.5 -17zM288.5 894q-20.5 -17 -20.5 -42t20.5 -41.5t50.5 -16.5t50.5 16.5t20.5 41.5t-20.5 42t-50.5 17t-50.5 -17z" />
    <glyph glyph-name="dotaccent.cap" horiz-adv-x="142" 
d="M17 894q-21 -17 -21 -42t21 -41.5t54 -16.5t54 16.5t21 41.5t-21 42t-54 17t-54 -17z" />
    <glyph glyph-name="ring.cap" horiz-adv-x="238" 
d="M34.5 934.5q34.5 29.5 84.5 29.5t84.5 -29.5t34.5 -72.5t-34.5 -72.5t-84.5 -29.5t-84.5 29.5t-34.5 72.5t34.5 72.5zM78.5 895.5q-17.5 -13.5 -17.5 -33.5t17.5 -33.5t41.5 -13.5q25 0 41 13.5t16 33.5t-16 33.5t-41 13.5q-24 0 -41.5 -13.5z" />
    <glyph glyph-name="cyrbreve.cap" horiz-adv-x="462" 
d="M356 893.5q-16 -21.5 -48 -35t-77 -13.5t-77 13.5t-48 35t-16 44.5h-75q0 -39 25 -75t74 -58t117 -22t117 22t74 58t25 75h-75q0 -23 -16 -44.5z" />
    <glyph glyph-name="acute.pl" horiz-adv-x="164" 
d="M0 587h77l87 170h-94z" />
    </font>
</defs>
</svg>
